<?xml version="1.0" standalone="no"?>
<!DOCTYPE svg PUBLIC "-//W3C//DTD SVG 1.1//EN" "http://www.w3.org/Graphics/SVG/1.1/DTD/svg11.dtd">
<svg xmlns="http://www.w3.org/2000/svg">
<metadata>Creative Commons-License BY-SA (http://www.creativecommons.org/licenses/by-sa/3.0/)</metadata>
<defs>
<font id="picol" horiz-adv-x="1000" >
<font-face font-family="picol" font-weight="400" font-stretch="normal" units-per-em="1000" ascent="850" descent="-150" />
<missing-glyph horiz-adv-x="1000" />
<glyph glyph-name="accept" unicode="&#xe800;" d="m438 288l375 375l125-125l-500-500l-313 312l125 125z" horiz-adv-x="1000" />
<glyph glyph-name="zoom_out" unicode="&#xea24;" d="m938 38l-342 341c20 38 31 81 31 127c0 157-127 284-283 284c-157 0-284-127-284-284c0-156 127-283 284-283c46 0 89 11 127 31l342-342l125 126z m-811 468c0 120 97 217 217 217c120 0 216-97 216-217c0-119-96-216-216-216c-120 0-217 97-217 216z m61 32l312 0l0-63l-312 0z" horiz-adv-x="1000" />
<glyph glyph-name="agent" unicode="&#xe802;" d="m625 350c0-69-56-125-125-125c-69 0-125 56-125 125c0 69 56 125 125 125c69 0 125-56 125-125z m250 250c69 0 125 56 125 125c0 69-56 125-125 125c-69 0-125-56-125-125c0-23 7-44 18-63l-101-101c-49 23-105 38-167 39c-240-2-398-229-400-231l-13-18l13-18c1-1 66-95 176-163l-88-88c-18 11-40 18-63 18c-69 0-125-56-125-125c0-69 56-125 125-125c69 0 125 56 125 125c0 23-7 45-18 63l101 101c50-23 106-38 167-39c241 3 398 230 400 232l13 18l-13 18c-1 1-66 94-176 162l88 88c18-11 40-18 63-18z m-51-236c4-5 8-10 11-14c-3-4-7-8-11-13c-52-60-176-175-324-174c-98-1-186 50-250 102c-31 26-56 53-74 72c-4 6-8 10-11 14c3 4 7 9 11 14c52 59 176 174 324 173c99 0 186-50 250-103c31-26 57-52 74-71z m-74-389c0 69 56 125 125 125l0 0c69 0 125-56 125-125l0 0c0-69-56-125-125-125l0 0c-69 0-125 56-125 125l0 0z m63 0c0-35 28-62 62-63l0 0c35 1 62 28 63 63l0 0c-1 35-28 62-63 63l0 0c-34-1-62-28-62-63l0 0z m-813 750c0 69 56 125 125 125l0 0c69 0 125-56 125-125l0 0c0-69-56-125-125-125l0 0c-69 0-125 56-125 125l0 0z m63 0c0-34 28-62 62-62l0 0c35 0 62 28 62 62l0 0c0 35-27 62-62 63l0 0c-34-1-62-28-62-63l0 0z" horiz-adv-x="1000" />
<glyph glyph-name="api" unicode="&#xe803;" d="m500 413l125 0l0 125l375 0l0-375l-375 0l0 125l-125 0z m-62 0l-125 0l0-125l125 0l0-250l-438 0l0 625l438 0z" horiz-adv-x="1000" />
<glyph glyph-name="apple" unicode="&#xe804;" d="m688 600c-73 0-124-31-155-58c13 130 92 183 92 183l-62 31c0 0-81-81-93-217c-30 27-82 61-157 61c-125 0-219-94-188-281c41-247 156-344 250-344c63 0 125 63 125 63c0 0 63-63 125-63c94 0 209 97 250 344c31 187-62 281-187 281z" horiz-adv-x="1000" />
<glyph glyph-name="application" unicode="&#xe805;" d="m1000 413v62h-316c41 40 66 95 66 156c0 121-98 219-219 219c-121 0-218-98-218-219c0-116 91-211 206-218l-126-125h-393v-63h316c-41-40-66-95-66-156c0-121 98-219 219-219c121 0 218 98 219 219c-1 116-92 211-207 218l126 126h393z m-625 218c0 87 70 156 156 157c87-1 156-70 156-157h1c-1-86-70-156-157-156c-86 0-156 70-156 156z m250-562c0-87-70-156-156-157c-86 1-156 70-156 157c0 86 70 156 156 156c86 0 156-70 156-156z" horiz-adv-x="1000" />
<glyph glyph-name="arrow_full_down" unicode="&#xe806;" d="m688 788l-375 0l0-438l-250 0l437-438l437 438l-249 0z" horiz-adv-x="1000" />
<glyph glyph-name="arrow_full_left" unicode="&#xe807;" d="m500 788l0-250l438 0l0-375l-438 0l0-251l-437 438z" horiz-adv-x="1000" />
<glyph glyph-name="arrow_full_lowerleft" unicode="&#xe808;" d="m125 600l188-187l312 312l250-250l-312-312l187-188l-625 0z" horiz-adv-x="1000" />
<glyph glyph-name="arrow_full_lowerright" unicode="&#xe809;" d="m875 600l-187-187l-313 312l-250-250l313-312l-188-188l625 0z" horiz-adv-x="1000" />
<glyph glyph-name="arrow_full_right" unicode="&#xe80a;" d="m500 788l0-250l-437 0l0-375l437 0l0-251l438 438z" horiz-adv-x="1000" />
<glyph glyph-name="arrow_full_up" unicode="&#xe80b;" d="m63 350l250 0l0-438l375 0l0 438l250 0l-438 438z" horiz-adv-x="1000" />
<glyph glyph-name="arrow_full_upperleft" unicode="&#xe80c;" d="m125 100l188 188l312-313l250 250l-312 313l187 187l-625 0z" horiz-adv-x="1000" />
<glyph glyph-name="arrow_full_upperright" unicode="&#xe80d;" d="m875 100l-187 188l-313-313l-250 250l313 313l-188 187l625 0z" horiz-adv-x="1000" />
<glyph glyph-name="arrow_sans_down" unicode="&#xe80e;" d="m63 538l437-438l438 438z" horiz-adv-x="1000" />
<glyph glyph-name="arrow_sans_left" unicode="&#xe80f;" d="m688 788l-438-438l438-438z" horiz-adv-x="1000" />
<glyph glyph-name="arrow_sans_lowerleft" unicode="&#xe810;" d="m125 600l0-625l625 0z" horiz-adv-x="1000" />
<glyph glyph-name="arrow_sans_lowerright" unicode="&#xe811;" d="m875 600l0-625l-625 0z" horiz-adv-x="1000" />
<glyph glyph-name="arrow_sans_right" unicode="&#xe812;" d="m313 788l437-438l-437-438z" horiz-adv-x="1000" />
<glyph glyph-name="arrow_sans_up" unicode="&#xe813;" d="m938 163l-438 437l-437-437z" horiz-adv-x="1000" />
<glyph glyph-name="arrow_sans_upperleft" unicode="&#xe814;" d="m125 100l0 625l625 0z" horiz-adv-x="1000" />
<glyph glyph-name="arrow_sans_upperright" unicode="&#xe815;" d="m875 100l0 625l-625 0z" horiz-adv-x="1000" />
<glyph glyph-name="attachment" unicode="&#xe816;" d="m219 225c-3 0-54 0-108 27l0 0c-55 26-112 87-111 192l0 0c-1 105 56 166 111 192l0 0c54 27 105 26 108 27l0 0c0 0 625 0 687 0l0 0c43 1 73-26 83-49l0 0c11-23 11-43 11-45l0 0l0-125c0-3 0-22-11-45l0 0c-10-24-40-50-83-49l0 0c-62 0-562 0-562 0l0 0c-43-1-73 25-83 49l0 0c-11 23-11 42-11 45l0 0c-1 42 25 72 49 82l0 0c23 12 42 11 45 12l0 0h500v-63h-500c0 0-1 0-5 0l0 0c-3-1-8-2-12-4l0 0c-8-6-13-7-14-27l0 0c0 0-1-1 0-5l0 0c1-3 2-8 4-12l0 0c5-8 7-13 27-14l0 0c0 0 500 0 562 0l0 0c16 0 19 4 24 8l0 0c3 5 6 13 7 18l0 0c1 4 1 5 0 5l0 0l1 125c-1 0 0 1-1 4l0 0c-1 4-2 9-4 13l0 0c-5 8-7 13-27 14l0 0c-62 0-687 0-687 0l0 0c0 0-9 0-24-3l0 0c-16-2-36-7-56-17l0 0c-39-21-75-54-76-136l0 0c0-63 21-95 48-118l0 0c26-22 60-32 84-36l0 0c15-3 24-3 24-3l0 0h687v-62h-687l0 0z" horiz-adv-x="1000" />
<glyph glyph-name="attachment_add" unicode="&#xe817;" d="m688 163l-125 0l0-63l125 0l0-125l62 0l0 125l125 0l0 63l-125 0l0 125l-62 0z m207 187h11c43-1 73 25 83 49c11 23 11 42 11 45l0 125c0 2 0 22-11 45c-10 23-40 50-83 48c-62 1-687 1-687 1c-3-1-54 0-108-27c-55-26-112-87-111-192c-1-105 56-166 111-192c54-27 105-27 108-27h235c-11-29-16-61-16-94c0-155 125-281 281-281c155 0 281 126 281 281c0 89-41 168-105 219z m-676-63c0 0-9 0-24 3c-24 4-58 14-84 36c-27 23-48 55-48 118c1 82 37 115 76 136c20 10 40 15 56 17c15 3 24 3 24 3c0 0 625 0 687 0c20-1 22-6 27-14c2-4 3-9 4-13c1-3 0-4 1-4l-1-125c1 0 1-1 0-5c-1-5-4-13-8-18c-4-4-7-8-23-8c-22 0-98 0-187 0c0 0 0 0 0 0c0 0 0 0 0 0c-165 0-375 0-375 0c-20 1-22 6-27 13c-2 5-3 9-4 13c-1 4 0 5 0 5c1 20 6 21 14 26c4 3 9 4 12 4c4 1 5 1 5 1h500v62h-500c-3 0-22 1-45-11c-24-10-50-40-49-82c0-3 0-22 11-45c10-24 40-50 83-49c0 0 90 0 198 0c-22-18-41-39-57-63h-266z m500-371c-119 0-215 97-215 215c0 119 96 215 215 215c119 0 215-96 215-215c0-118-96-215-215-215z" horiz-adv-x="1000" />
<glyph glyph-name="attachment_down" unicode="&#xe818;" d="m719 38l125 125l-250 0z m176 312h11c43-1 73 25 83 49c11 23 11 42 11 45l0 125c0 2 0 22-11 45c-10 23-40 50-83 48c-62 1-687 1-687 1c-3-1-54 0-108-27c-55-26-112-87-111-192c-1-105 56-166 111-192c54-27 105-27 108-27h235c-11-29-16-61-16-94c0-155 125-281 281-281c155 0 281 126 281 281c0 89-41 168-105 219z m-676-63c0 0-9 0-24 3c-24 4-58 14-84 36c-27 23-48 55-48 118c1 82 37 115 76 136c20 10 40 15 56 17c15 3 24 3 24 3c0 0 625 0 687 0c20-1 22-6 27-14c2-4 3-9 4-13c1-3 0-4 1-4l-1-125c1 0 1-1 0-5c-1-5-4-13-8-18c-4-4-7-8-23-8c-22 0-98 0-187 0c0 0 0 0 0 0c0 0 0 0 0 0c-165 0-375 0-375 0c-20 1-22 6-27 13c-2 5-3 9-4 13c-1 4 0 5 0 5c1 20 6 21 14 26c4 3 9 4 12 4c4 1 5 1 5 1h500v62h-500c-3 0-22 1-45-11c-24-10-50-40-49-82c0-3 0-22 11-45c10-24 40-50 83-49c0 0 90 0 198 0c-22-18-41-39-57-63h-266z m500-371c-119 0-215 97-215 215c0 119 96 215 215 215c119 0 215-96 215-215c0-118-96-215-215-215z" horiz-adv-x="1000" />
<glyph glyph-name="avatar" unicode="&#xe819;" d="m875 288h-122c37 98 59 214 60 331c0 56-16 108-43 153l-14 25l-26-13c0 0-17-8-43-18c-46 51-112 84-187 84c-75 0-141-33-187-85c-26 11-43 19-43 19l-26 13l-15-25c-26-45-41-98-41-153c0-117 22-233 59-331c-108 0-122 0-122 0s-125-6-125-125c0-63 0-313 0-313h1000v313c0 0 0 125-125 125z m-204-34c-49-99-114-155-171-154c-57-1-122 55-171 154c-48 98-79 232-79 365c0 34 7 67 20 96c47-20 145-58 230-59c85 1 183 39 229 60c14-30 21-63 21-97c0-133-31-267-79-365z m-327 96c0 0 31-125 156-125c122 0 156 125 156 125s-93-31-156-31s-156 31-156 31z m125 188c0 0-31 62-94 62s-94-62-94-62s63 0 94 0s94 0 94 0z m156 62c-62 0-94-62-94-62s63 0 94 0s94 0 94 0s-31 62-94 62z" horiz-adv-x="1000" />
<glyph glyph-name="avatar_edit" unicode="&#xe81a;" d="m719 538c0 0-31 62-94 62c-62 0-94-62-94-62c0 0 63 0 94 0c31 0 94 0 94 0z m-344 62c-62 0-94-62-94-62c0 0 63 0 94 0c31 0 94 0 94 0c0 0-31 62-94 62z m608-372c-32 87-105 153-196 176c16 68 25 141 26 215c0 56-16 108-43 153l-14 25l-26-13c0 0-17-8-43-18c-46 51-112 84-187 84c-75 0-141-33-187-85c-26 11-43 19-43 19l-26 13l-15-25c-26-45-41-98-41-153c0-117 22-233 59-331c-108 0-122 0-122 0c0 0-125-6-125-125c0-63 0-313 0-313h1000v313c0 0 0 33-17 65z m-527 3c-12-31-18-64-18-100c0-3 0-7 0-11c-39 24-77 70-109 135c-48 97-79 231-79 364c0 34 7 67 20 97c47-21 145-59 230-60c85 1 183 39 229 60c14-30 21-63 21-97c0-71-9-141-25-207c-2 0-4 1-6 1c-83 0-157-37-209-94c-3 0-7 0-10 0c-62 0-156 31-156 31c0 0 24-94 112-119z m263-315c-119 0-215 97-215 215c0 119 96 215 215 215c119 0 215-96 215-215c0-118-96-215-215-215z m156 278l-156-156l-94 93l156 157z m-281-188l0 94l94-94z" horiz-adv-x="1000" />
<glyph glyph-name="avatar_information" unicode="&#xe81b;" d="m688-25h62v188h-62v-188z m0 313v-63h62v63h-62z m31 250c0 0-31 62-94 62c-62 0-94-62-94-62c0 0 63 0 94 0c31 0 94 0 94 0z m-344 62c-62 0-94-62-94-62c0 0 63 0 94 0c31 0 94 0 94 0c0 0-31 62-94 62z m608-372c-32 87-105 153-196 176c16 68 25 141 26 215c0 56-16 108-43 153l-14 25l-26-13c0 0-17-8-43-18c-46 51-112 84-187 84c-75 0-141-33-187-85c-26 11-43 19-43 19l-26 13l-15-25c-26-45-41-98-41-153c0-117 22-233 59-331c-108 0-122 0-122 0c0 0-125-6-125-125c0-63 0-313 0-313h1000v313c0 0 0 33-17 65z m-527 3c-12-31-18-64-18-100c0-3 0-7 0-11c-39 24-77 70-109 135c-48 97-79 231-79 364c0 34 7 67 20 97c47-21 145-59 230-60c85 1 183 39 229 60c14-30 21-63 21-97c0-71-9-141-25-207c-2 0-4 1-6 1c-83 0-157-37-209-94c-3 0-7 0-10 0c-62 0-156 31-156 31c0 0 24-94 112-119z m263-315c-119 0-215 97-215 215c0 119 96 215 215 215c119 0 215-96 215-215c0-118-96-215-215-215z" horiz-adv-x="1000" />
<glyph glyph-name="backup" unicode="&#xe81c;" d="m750 350l-187-187l375 0z m-500 0l-187-187l375 0z m-62 375v-187h625v187h-625z m187-125h-125v63h125v-63z m-312-500v-250h875v250h-875z m187-188h-125v63h125v-63z m-187 501v437h875v-437h-875l0 0z m812 62v313h-750v-313h750z" horiz-adv-x="1000" />
<glyph glyph-name="backup_pause" unicode="&#xe81d;" d="m625 225l63 0l0-187l-63 0z m125 0l63 0l0-187l-63 0z m188 625h-875v-437h656h219v437z m-63-375h-750v313h750v-313z m-62 250h-625v-187h625v187z m-438-125h-125v63h125v-63z m-125-250l-187-187h375l-188 187z m469 63c-156 0-281-126-281-282c0-10 0-21 1-31c-125 0-376 0-376 0v-250h875v105c39 48 62 109 62 176c0 156-126 282-281 282z m-469-501h-125v63h125v-63z m469 4c-119 0-215 97-215 215c0 119 96 215 215 215c119 0 215-96 215-215c0-118-96-215-215-215z" horiz-adv-x="1000" />
<glyph glyph-name="backup_run" unicode="&#xe81e;" d="m813 131l-125 125l0-250z m125 719h-875v-437h656h219v437z m-63-375h-750v313h750v-313z m-62 250h-625v-187h625v187z m-438-125h-125v63h125v-63z m-125-250l-187-187h375l-188 187z m469 63c-156 0-281-126-281-282c0-10 0-21 1-31c-125 0-376 0-376 0v-250h875v105c39 48 62 109 62 176c0 156-126 282-281 282z m-469-501h-125v63h125v-63z m469 4c-119 0-215 97-215 215c0 119 96 215 215 215c119 0 215-96 215-215c0-118-96-215-215-215z" horiz-adv-x="1000" />
<glyph glyph-name="backup_settings" unicode="&#xe81f;" d="m875 100v63h-52c-2 6-4 12-8 19l38 37l-45 44l-36-37c-7 4-14 7-22 10v52h-62v-52c-8-3-14-5-21-9l-35 36l-45-44l36-36c-4-7-6-13-9-20h-51v-63h51c3-8 6-15 10-22l-37-36l44-44l38 37c6-3 12-6 18-8v-52h63v52c7 2 14 5 20 9l38-38l44 44l-37 38c3 6 6 13 8 20h52z m-156-16c-26 1-47 21-47 47c0 26 21 47 47 47c26 0 47-21 47-47c0-26-21-46-47-47z m219 766h-875v-437h656h219v437z m-63-375h-750v313h750v-313z m-62 250h-625v-187h625v187z m-438-125h-125v63h125v-63z m-125-250l-187-187h375l-188 187z m469 63c-156 0-281-126-281-282c0-10 0-21 1-31c-125 0-376 0-376 0v-250h875v105c39 48 62 109 62 176c0 156-126 282-281 282z m-469-501h-125v63h125v-63z m469 4c-119 0-215 97-215 215c0 119 96 215 215 215c119 0 215-96 215-215c0-118-96-215-215-215z" horiz-adv-x="1000" />
<glyph glyph-name="backup_stop" unicode="&#xe820;" d="m625 225l188 0l0-187l-188 0z m313 625h-875v-437h656h219v437z m-63-375h-750v313h750v-313z m-62 250h-625v-187h625v187z m-438-125h-125v63h125v-63z m-125-250l-187-187h375l-188 187z m469 63c-156 0-281-126-281-282c0-10 0-21 1-31c-125 0-376 0-376 0v-250h875v105c39 48 62 109 62 176c0 156-126 282-281 282z m-469-501h-125v63h125v-63z m469 4c-119 0-215 97-215 215c0 119 96 215 215 215c119 0 215-96 215-215c0-118-96-215-215-215z" horiz-adv-x="1000" />
<glyph glyph-name="badge_accept" unicode="&#xe821;" d="m688 131l125 125l62-62l-187-188l-125 125l62 63z m-250 0c0 156 125 282 281 282l0 0c155 0 281-126 281-282l0 0c0-155-126-281-281-281l0 0c-156 0-281 126-281 281l0 0z m66 0c0-118 96-215 215-215l0 0c119 0 215 97 215 215l0 0c0 119-96 215-215 215l0 0c-119 0-215-96-215-215l0 0z" horiz-adv-x="1000" />
<glyph glyph-name="badge_cancel" unicode="&#xe822;" d="m719 69l62-63l63 63l-63 62l63 63l-63 62l-62-62l-63 62l-62-62l62-63l-62-62l62-63z m-281 62c0 156 125 282 281 282l0 0c155 0 281-126 281-282l0 0c0-155-126-281-281-281l0 0c-156 0-281 126-281 281l0 0z m66 0c0-118 96-215 215-215l0 0c119 0 215 97 215 215l0 0c0 119-96 215-215 215l0 0c-119 0-215-96-215-215l0 0z" horiz-adv-x="1000" />
<glyph glyph-name="badge_down" unicode="&#xe823;" d="m719 38l125 125l-250 0z m-281 93c0 156 125 282 281 282l0 0c155 0 281-126 281-282l0 0c0-155-126-281-281-281l0 0c-156 0-281 126-281 281l0 0z m66 0c0-118 96-215 215-215l0 0c119 0 215 97 215 215l0 0c0 119-96 215-215 215l0 0c-119 0-215-96-215-215l0 0z" horiz-adv-x="1000" />
<glyph glyph-name="badge_edit" unicode="&#xe824;" d="m875 194l-156-156l-94 93l156 157z m-281-94l94-94l-94 0z m125-250c-156 0-281 126-281 281c0 156 125 282 281 282c155 0 281-126 281-282c0-155-126-281-281-281z m0 496c-119 0-215-96-215-215c0-118 96-215 215-215c119 0 215 97 215 215c0 119-96 215-215 215z" horiz-adv-x="1000" />
<glyph glyph-name="badge_eject" unicode="&#xe825;" d="m594 100l250 0l0-62l-250 0z m125 188l-125-125l250 0z m-281-157c0 156 125 282 281 282l0 0c155 0 281-126 281-282l0 0c0-155-126-281-281-281l0 0c-156 0-281 126-281 281l0 0z m66 0c0-118 96-215 215-215l0 0c119 0 215 97 215 215l0 0c0 119-96 215-215 215l0 0c-119 0-215-96-215-215l0 0z" horiz-adv-x="1000" />
<glyph glyph-name="badge_information" unicode="&#xe826;" d="m438 131c0 156 125 282 281 282l0 0c155 0 281-126 281-282l0 0c0-155-126-281-281-281l0 0c-156 0-281 126-281 281l0 0z m66 0c0-118 96-215 215-215l0 0c119 0 215 97 215 215l0 0c0 119-96 215-215 215l0 0c-119 0-215-96-215-215l0 0z m184-156h62v188h-62v-188z m0 313v-63h62v63h-62z" horiz-adv-x="1000" />
<glyph glyph-name="badge_minus" unicode="&#xe827;" d="m563 163l312 0l0-63l-312 0z m-125-32c0 156 125 282 281 282l0 0c155 0 281-126 281-282l0 0c0-155-126-281-281-281l0 0c-156 0-281 126-281 281l0 0z m66 0c0-118 96-215 215-215l0 0c119 0 215 97 215 215l0 0c0 119-96 215-215 215l0 0c-119 0-215-96-215-215l0 0z" horiz-adv-x="1000" />
<glyph glyph-name="badge_pause" unicode="&#xe828;" d="m625 225l63 0l0-187l-63 0z m125 0l63 0l0-187l-63 0z m-312-94c0 156 125 282 281 282l0 0c155 0 281-126 281-282l0 0c0-155-126-281-281-281l0 0c-156 0-281 126-281 281l0 0z m66 0c0-118 96-215 215-215l0 0c119 0 215 97 215 215l0 0c0 119-96 215-215 215l0 0c-119 0-215-96-215-215l0 0z" horiz-adv-x="1000" />
<glyph glyph-name="badge_plus" unicode="&#xe829;" d="m688 163l-125 0l0-63l125 0l0-125l62 0l0 125l125 0l0 63l-125 0l0 125l-62 0z m-250-32c0 156 125 282 281 282l0 0c155 0 281-126 281-282l0 0c0-155-126-281-281-281l0 0c-156 0-281 126-281 281l0 0z m66 0c0-118 96-215 215-215l0 0c119 0 215 97 215 215l0 0c0 119-96 215-215 215l0 0c-119 0-215-96-215-215l0 0z" horiz-adv-x="1000" />
<glyph glyph-name="badge_run" unicode="&#xe82a;" d="m813 131l-125 125l0-250z m-375 0c0 156 125 282 281 282l0 0c155 0 281-126 281-282l0 0c0-155-126-281-281-281l0 0c-156 0-281 126-281 281l0 0z m66 0c0-118 96-215 215-215l0 0c119 0 215 97 215 215l0 0c0 119-96 215-215 215l0 0c-119 0-215-96-215-215l0 0z" horiz-adv-x="1000" />
<glyph glyph-name="badge_security" unicode="&#xe82b;" d="m817 163c0 4 0 8 0 12c0 22-2 47-17 71c-14 24-45 42-81 42c-37 0-67-18-82-42c-14-24-17-49-17-71c0-4 0-8 0-12h-26v-157h250v157h-27z m-135 12c0 15 3 30 8 38c6 7 9 11 29 12c20-1 23-5 28-12c5-8 8-23 8-38c0-4 0-8-1-12h-71c0 4-1 8-1 12z m-244-44c0 156 125 282 281 282l0 0c155 0 281-126 281-282l0 0c0-155-126-281-281-281l0 0c-156 0-281 126-281 281l0 0z m66 0c0-118 96-215 215-215l0 0c119 0 215 97 215 215l0 0c0 119-96 215-215 215l0 0c-119 0-215-96-215-215l0 0z" horiz-adv-x="1000" />
<glyph glyph-name="badge_settings" unicode="&#xe82c;" d="m875 100v63h-52c-2 6-4 12-8 19l38 37l-45 44l-36-37c-7 4-14 7-22 10v52h-62v-52c-8-3-14-5-21-9l-35 36l-45-44l36-36c-4-7-6-13-9-20h-51v-63h51c3-8 6-15 10-22l-37-36l44-44l38 37c6-3 12-6 18-8v-52h63v52c7 2 14 5 20 9l38-38l44 44l-37 38c3 6 6 13 8 20h52z m-156-16c-26 1-47 21-47 47c0 26 21 47 47 47c26 0 47-21 47-47c0-26-21-46-47-47z m-281 47c0 156 125 282 281 282l0 0c155 0 281-126 281-282l0 0c0-155-126-281-281-281l0 0c-156 0-281 126-281 281l0 0z m66 0c0-118 96-215 215-215l0 0c119 0 215 97 215 215l0 0c0 119-96 215-215 215l0 0c-119 0-215-96-215-215l0 0z" horiz-adv-x="1000" />
<glyph glyph-name="badge_stop" unicode="&#xe82d;" d="m625 225l188 0l0-187l-188 0z m-187-94c0 156 125 282 281 282l0 0c155 0 281-126 281-282l0 0c0-155-126-281-281-281l0 0c-156 0-281 126-281 281l0 0z m66 0c0-118 96-215 215-215l0 0c119 0 215 97 215 215l0 0c0 119-96 215-215 215l0 0c-119 0-215-96-215-215l0 0z" horiz-adv-x="1000" />
<glyph glyph-name="badge_up" unicode="&#xe82e;" d="m719 225l-125-125l250 0z m-281-94c0 156 125 282 281 282l0 0c155 0 281-126 281-282l0 0c0-155-126-281-281-281l0 0c-156 0-281 126-281 281l0 0z m66 0c0-118 96-215 215-215l0 0c119 0 215 97 215 215l0 0c0 119-96 215-215 215l0 0c-119 0-215-96-215-215l0 0z" horiz-adv-x="1000" />
<glyph glyph-name="baseball" unicode="&#xe82f;" d="m500 850c-276 0-500-224-500-500s224-500 500-500s500 224 500 500s-224 500-500 500z m-437-500c0 116 45 221 119 299c5-8 11-19 18-33l-33-18l31-54l24 13c2-4 3-10 4-15l-28-8l16-60l26 7c1-5 1-9 2-14l-29-2l5-62l30 2c1-8 1-16 1-24h-30v-62h30c0-8 0-16-1-24l-30 3l-5-63l29-2c-1-5-2-9-2-14l-26 7l-17-60l29-8c-1-5-2-11-4-16l-24 14l-31-54l32-19c-6-13-12-24-17-32c-74 78-119 183-119 299z m165-342c8 11 17 25 26 44l31-17l31 54l-38 22c3 9 6 19 9 30l38-10l16 60l-41 11c2 9 3 17 4 26l37-3l5 62l-36 3c1 9 1 19 2 29h32v62h-32c0 10-1 20-1 29l35 3l-4 62l-38-3c-1 9-2 17-4 26l42 11l-17 60l-38-10c-3 10-6 20-9 30l38 22l-31 54l-31-18c-9 20-18 34-26 45c75 60 169 96 272 96c103 0 197-36 272-96c-8-11-17-25-26-45l-31 18l-31-54l38-22c-3-10-6-20-9-30l-38 10l-16-60l41-11c-2-9-3-17-4-26l-37 3l-5-62l36-3c-1-9-1-19-2-29h-32v-62h32c1-10 1-20 2-29l-36-3l5-62l37 3c1-9 2-17 4-26l-41-11l16-60l38 10c3-11 6-21 9-30l-38-22l31-54l31 17c9-19 18-33 26-44c-75-60-169-96-272-96c-103 0-197 36-272 96z m590 43c-5 8-11 19-17 32l32 19l-31 54l-24-14c-1 5-3 11-4 16l29 8l-17 60l-26-7c0 5-1 9-2 14l29 2l-5 63l-30-3c-1 8-1 16-1 24h30v62h-30c0 8 0 16 1 24l30-2l5 62l-29 2c1 5 2 9 2 14l26-7l16 60l-28 8c1 5 2 11 4 15l24-13l31 54l-33 18c7 14 13 25 18 33c74-78 120-183 120-299s-46-221-120-299z" horiz-adv-x="1000" />
<glyph glyph-name="basketball" unicode="&#xe830;" d="m147 704c-95-95-147-220-147-354c0-133 52-259 147-354c94-94 219-146 353-146c134 0 259 52 354 146c94 95 146 221 146 354c0 134-52 259-146 354c-95 94-220 146-354 146c-134 0-259-52-353-146z m322 82l0-239c-43 4-84 18-116 41l-135 96c71 60 158 95 251 102z m62 0c92-7 179-41 249-100l-127-92c-34-25-77-40-122-46z m294-144c65-73 104-164 111-261l-405 0l0 105c58 5 114 24 159 57z m-652-2l143-102c44-31 97-48 153-52l0-105l-404 0c6 97 44 187 108 259z m-108-321l404 0l0-106c-53-7-104-26-147-56l-142-104c-68 74-109 166-115 266z m466 0l405 0c-7-94-43-182-104-253l-136 97c-46 33-105 51-165 53z m0-166c48-3 94-16 129-41l127-91c-72-63-161-100-256-107z m-62-3l0-236c-90 7-174 39-243 95l132 97c32 23 71 37 111 44z" horiz-adv-x="1000" />
<glyph glyph-name="battery_1" unicode="&#xe831;" d="m125 600v-125h-125l0-250h125v-125h875v500h-875z m63-437v375h750v-375h-750z m562 312l125 0l0-250l-125 0z" horiz-adv-x="1000" />
<glyph glyph-name="battery_2" unicode="&#xe832;" d="m125 600v-125h-125l0-250h125v-125h875v500h-875z m63-437v375h750v-375h-750z m437 312l250 0l0-250l-250 0z" horiz-adv-x="1000" />
<glyph glyph-name="battery_3" unicode="&#xe833;" d="m125 600v-125h-125l0-250h125v-125h875v500h-875z m63-437v375h750v-375h-750z m312 312l375 0l0-250l-375 0z" horiz-adv-x="1000" />
<glyph glyph-name="battery_4" unicode="&#xe834;" d="m375 475l500 0l0-250l-500 0z m-187-312v375h750v-375h-750z m-63 437v-125h-125l0-250h125v-125h875v500h-875z" horiz-adv-x="1000" />
<glyph glyph-name="battery_empty" unicode="&#xe835;" d="m125 600v-125h-125l0-250h125v-125h875v500h-875z m63-437v375h750v-375h-750z m375 250l-63 62l-125 0l125-125l-125-125l125 0l63 63l62-63l125 0l-125 125l125 125l-125 0z" horiz-adv-x="1000" />
<glyph glyph-name="battery_full" unicode="&#xe836;" d="m875 475h-625v-250h625v250z m-750 125v-125h-125l0-250h125v-125h875v500h-875z m813-437h-750v375h750v-375z" horiz-adv-x="1000" />
<glyph glyph-name="battery_plugged" unicode="&#xe837;" d="m750 444l0 31l-250 0l0-62l-250 0l0-125l250 0l0-63l250 0l0 31l125 0l0 63l-125 0l0 62l125 0l0 63z m-625 156v-125h-125l0-250h125v-125h875v500h-875z m63-437v375h750v-375h-750z" horiz-adv-x="1000" />
<glyph glyph-name="bed" unicode="&#xe838;" d="m875 538v-157c0 52-56 94-125 94s-125-42-125-94c0 52-146 94-250 94s-250-42-250-94v94h-62v-375h62v125h750v-125h63v438h-63z" horiz-adv-x="1000" />
<glyph glyph-name="book_audio" unicode="&#xe839;" d="m656 468l-312 78v-233c-10 4-20 6-31 6c-52 0-94-42-94-94c0-52 42-94 94-94c51 0 93 42 93 94v241l188-47v-168c-10 3-20 5-31 5c-52 0-94-42-94-93c0-52 42-94 94-94c51 0 93 42 93 94v305z m188 351v-63h-63v-62h63v-875h-750c0 0-63 0-63 62v843c0 1 0 1 0 1c-1 42 26 72 49 83c23 11 42 11 45 11h719m-719-125c0 0 0 0 0 0h594v62h-594c0 0-1 0-5 0c-3-1-8-2-12-4c-8-6-13-7-14-27c0-16 4-19 8-23c5-4 13-7 18-8c3 0 5 0 5 0m31-813h625v750h-625v-750" horiz-adv-x="1000" />
<glyph glyph-name="book_audio_add" unicode="&#xe83a;" d="m688 163l-125 0l0-63l125 0l0-125l62 0l0 125l125 0l0 63l-125 0l0 125l-62 0z m312-32c0 123-78 226-187 265v329h-63v63h63v62h-719c-3 0-22 0-45-11c-24-10-50-40-49-83c0 0 0 0 0 0v-844c0-62 63-62 63-62h658l0 0c154 1 279 127 279 281z m-911 595c-5 0-13 3-18 7c-4 4-8 8-8 23c1 20 6 22 14 27c4 2 9 3 12 4c4 1 5 0 5 1h594v-63h-594c0 0-1 0-5 1z m36-814v751h625v-252c-10 1-21 2-31 2c-33 0-65-6-94-17v103l-312 78v-233c-10 4-21 6-32 6c-52 0-93-42-93-94c0-51 41-93 93-93c52 0 94 41 94 93l0 0v241l188-46v-86c-76-50-125-136-125-234c0-88 40-167 104-219h-417z m594 0c-121 1-219 99-219 219c0 121 98 219 219 219c121 0 218-98 219-219c-1-120-98-218-219-219z" horiz-adv-x="1000" />
<glyph glyph-name="book_audio_eject" unicode="&#xe83b;" d="m594 100l250 0l0-62l-250 0z m125 188l-125-125l250 0z m281-157c0 123-78 226-187 265v329h-63v63h63v62h-719c-3 0-22 0-45-11c-24-10-50-40-49-83c0 0 0 0 0 0v-844c0-62 63-62 63-62h658l0 0c154 1 279 127 279 281z m-911 595c-5 0-13 3-18 7c-4 4-8 8-8 23c1 20 6 22 14 27c4 2 9 3 12 4c4 1 5 0 5 1h594v-63h-594c0 0-1 0-5 1z m36-814v751h625v-252c-10 1-21 2-31 2c-33 0-65-6-94-17v103l-312 78v-233c-10 4-21 6-32 6c-52 0-93-42-93-94c0-51 41-93 93-93c52 0 94 41 94 93l0 0v241l188-46v-86c-76-50-125-136-125-234c0-88 40-167 104-219h-417z m594 0c-121 1-219 99-219 219c0 121 98 219 219 219c121 0 218-98 219-219c-1-120-98-218-219-219z" horiz-adv-x="1000" />
<glyph glyph-name="book_audio_information" unicode="&#xe83c;" d="m688-25h62v188h-62v-188z m0 313v-63h62v63h-62z m312-157c0 123-78 226-187 265v329h-63v63h63v62h-719c-3 0-22 0-45-11c-24-10-50-40-49-83c0 0 0 0 0 0v-844c0-62 63-62 63-62h658l0 0c154 1 279 127 279 281z m-911 595c-5 0-13 3-18 7c-4 4-8 8-8 23c1 20 6 22 14 27c4 2 9 3 12 4c4 1 5 0 5 1h594v-63h-594c0 0-1 0-5 1z m36-814v751h625v-252c-10 1-21 2-31 2c-33 0-65-6-94-17v103l-312 78v-233c-10 4-21 6-32 6c-52 0-93-42-93-94c0-51 41-93 93-93c52 0 94 41 94 93l0 0v241l188-46v-86c-76-50-125-136-125-234c0-88 40-167 104-219h-417z m594 0c-121 1-219 99-219 219c0 121 98 219 219 219c121 0 218-98 219-219c-1-120-98-218-219-219z" horiz-adv-x="1000" />
<glyph glyph-name="book_audio_pause" unicode="&#xe83d;" d="m625 225l63 0l0-187l-63 0z m125 0l63 0l0-187l-63 0z m250-94c0 123-78 226-187 265v329h-63v63h63v62h-719c-3 0-22 0-45-11c-24-10-50-40-49-83c0 0 0 0 0 0v-844c0-62 63-62 63-62h658l0 0c154 1 279 127 279 281z m-911 595c-5 0-13 3-18 7c-4 4-8 8-8 23c1 20 6 22 14 27c4 2 9 3 12 4c4 1 5 0 5 1h594v-63h-594c0 0-1 0-5 1z m36-814v751h625v-252c-10 1-21 2-31 2c-33 0-65-6-94-17v103l-312 78v-233c-10 4-21 6-32 6c-52 0-93-42-93-94c0-51 41-93 93-93c52 0 94 41 94 93l0 0v241l188-46v-86c-76-50-125-136-125-234c0-88 40-167 104-219h-417z m594 0c-121 1-219 99-219 219c0 121 98 219 219 219c121 0 218-98 219-219c-1-120-98-218-219-219z" horiz-adv-x="1000" />
<glyph glyph-name="book_audio_remove" unicode="&#xe83e;" d="m563 163l312 0l0-63l-312 0z m437-32c0 123-78 226-187 265v329h-63v63h63v62h-719c-3 0-22 0-45-11c-24-10-50-40-49-83c0 0 0 0 0 0v-844c0-62 63-62 63-62h658l0 0c154 1 279 127 279 281z m-911 595c-5 0-13 3-18 7c-4 4-8 8-8 23c1 20 6 22 14 27c4 2 9 3 12 4c4 1 5 0 5 1h594v-63h-594c0 0-1 0-5 1z m36-814v751h625v-252c-10 1-21 2-31 2c-33 0-65-6-94-17v103l-312 78v-233c-10 4-21 6-32 6c-52 0-93-42-93-94c0-51 41-93 93-93c52 0 94 41 94 93l0 0v241l188-46v-86c-76-50-125-136-125-234c0-88 40-167 104-219h-417z m594 0c-121 1-219 99-219 219c0 121 98 219 219 219c121 0 218-98 219-219c-1-120-98-218-219-219z" horiz-adv-x="1000" />
<glyph glyph-name="book_audio_run" unicode="&#xe83f;" d="m813 131l-125 125l0-250z m187 0c0 123-78 226-187 265v329h-63v63h63v62h-719c-3 0-22 0-45-11c-24-10-50-40-49-83c0 0 0 0 0 0v-844c0-62 63-62 63-62h658l0 0c154 1 279 127 279 281z m-911 595c-5 0-13 3-18 7c-4 4-8 8-8 23c1 20 6 22 14 27c4 2 9 3 12 4c4 1 5 0 5 1h594v-63h-594c0 0-1 0-5 1z m36-814v751h625v-252c-10 1-21 2-31 2c-33 0-65-6-94-17v103l-312 78v-233c-10 4-21 6-32 6c-52 0-93-42-93-94c0-51 41-93 93-93c52 0 94 41 94 93l0 0v241l188-46v-86c-76-50-125-136-125-234c0-88 40-167 104-219h-417z m594 0c-121 1-219 99-219 219c0 121 98 219 219 219c121 0 218-98 219-219c-1-120-98-218-219-219z" horiz-adv-x="1000" />
<glyph glyph-name="book_audio_security" unicode="&#xe840;" d="m817 162c0 5 0 9 0 13c0 21-2 47-17 71c-14 24-45 42-81 42c-37 0-67-18-82-42c-14-24-17-50-17-71c0-4 0-8 0-13h-26v-156h250v156h-27z m-135 13c0 15 3 30 8 38c6 7 9 11 29 12c20-1 23-5 28-12c5-8 8-23 8-38c0-4 0-8-1-13h-71c0 5-1 9-1 13z m318-44c0 123-78 226-187 265v329h-63v63h63v62h-719c-3 0-22 0-45-11c-24-10-50-40-49-83c0 0 0 0 0 0v-844c0-62 63-62 63-62h658l0 0c154 1 279 127 279 281z m-911 595c-5 0-13 3-18 7c-4 4-8 8-8 23c1 20 6 22 14 27c4 2 9 3 12 4c4 1 5 0 5 1h594v-63h-594c0 0-1 0-5 1z m36-814v751h625v-252c-10 1-21 2-31 2c-33 0-65-6-94-17v103l-312 78v-233c-10 4-21 6-32 6c-52 0-93-42-93-94c0-51 41-93 93-93c52 0 94 41 94 93l0 0v241l188-46v-86c-76-50-125-136-125-234c0-88 40-167 104-219h-417z m594 0c-121 1-219 99-219 219c0 121 98 219 219 219c121 0 218-98 219-219c-1-120-98-218-219-219z" horiz-adv-x="1000" />
<glyph glyph-name="book_audio_settings" unicode="&#xe841;" d="m875 100v63h-52c-2 6-4 12-8 19l38 37l-45 44l-36-37c-7 4-14 7-22 10v52h-62v-52c-8-3-14-5-21-9l-35 36l-45-44l36-36c-4-7-6-13-9-20h-51v-63h51c3-8 6-15 10-22l-37-36l44-44l38 37c6-3 12-6 18-8v-52h63v52c7 2 14 5 20 9l38-38l44 44l-37 38c3 6 6 13 8 20h52z m-156-16c-26 1-47 21-47 47c0 26 21 47 47 47c26 0 47-21 47-47c0-26-21-46-47-47z m281 47c0 123-78 226-187 265v329h-63v63h63v62h-719c-3 0-22 0-45-11c-24-10-50-40-49-83c0 0 0 0 0 0v-844c0-62 63-62 63-62h658l0 0c154 1 279 127 279 281z m-911 595c-5 0-13 3-18 7c-4 4-8 8-8 23c1 20 6 22 14 27c4 2 9 3 12 4c4 1 5 0 5 1h594v-63h-594c0 0-1 0-5 1z m36-814v751h625v-252c-10 1-21 2-31 2c-33 0-65-6-94-17v103l-312 78v-233c-10 4-21 6-32 6c-52 0-93-42-93-94c0-51 41-93 93-93c52 0 94 41 94 93l0 0v241l188-46v-86c-76-50-125-136-125-234c0-88 40-167 104-219h-417z m594 0c-121 1-219 99-219 219c0 121 98 219 219 219c121 0 218-98 219-219c-1-120-98-218-219-219z" horiz-adv-x="1000" />
<glyph glyph-name="book_audio_stop" unicode="&#xe842;" d="m625 225l188 0l0-187l-188 0z m375-94c0 123-78 226-187 265v329h-63v63h63v62h-719c-3 0-22 0-45-11c-24-10-50-40-49-83c0 0 0 0 0 0v-844c0-62 63-62 63-62h658l0 0c154 1 279 127 279 281z m-911 595c-5 0-13 3-18 7c-4 4-8 8-8 23c1 20 6 22 14 27c4 2 9 3 12 4c4 1 5 0 5 1h594v-63h-594c0 0-1 0-5 1z m36-814v751h625v-252c-10 1-21 2-31 2c-33 0-65-6-94-17v103l-312 78v-233c-10 4-21 6-32 6c-52 0-93-42-93-94c0-51 41-93 93-93c52 0 94 41 94 93l0 0v241l188-46v-86c-76-50-125-136-125-234c0-88 40-167 104-219h-417z m594 0c-121 1-219 99-219 219c0 121 98 219 219 219c121 0 218-98 219-219c-1-120-98-218-219-219z" horiz-adv-x="1000" />
<glyph glyph-name="book_image" unicode="&#xe843;" d="m656 444l-62 0l-63 62h-125l-62-62h-63c0 0-62 0-62-63c0-33 0-147 0-187c0-63 62-63 62-63c0 0 333 0 375 0c63 0 63 63 63 63c0 0 0 125 0 187c0 63-63 63-63 63z m-187-250c-52 0-94 42-94 94c0 51 42 93 94 93c52 0 94-42 94-93c0-52-42-94-94-94z m375 625v-63h-63v-62h63v-875h-750c0 0-63 0-63 62v843c0 1 0 1 0 1c-1 42 26 72 49 83c23 11 42 11 45 11h719m-719-125c0 0 0 0 0 0h594v62h-594c0 0-1 0-5 0c-3-1-8-2-12-4c-8-6-13-7-14-27c0-16 4-19 8-23c5-4 13-7 18-8c3 0 5 0 5 0m31-813h625v750h-625v-750" horiz-adv-x="1000" />
<glyph glyph-name="book_image_add" unicode="&#xe844;" d="m750 100l125 0l0 63l-125 0l0 125l-62 0l0-125l-125 0l0-63l125 0l0-125l62 0z m250 31c0 123-78 227-187 265v329h-63v63h63v62h-719c-3 0-22 0-45-11c-24-10-50-40-49-83c0 0 0 0 0 0v-844c0-62 63-62 63-62h658l0 0c154 1 279 127 279 281z m-911 595c-5 0-13 3-18 7c-4 4-8 8-8 23c1 20 6 22 14 27c4 2 9 3 12 4c4 1 5 0 5 1h594v-63h-594c0 0-1 0-5 1z m36-814v751h625v-252c-10 1-21 2-31 2c-11 0-21-1-31-2c0 0 0 1 0 2c0 62-63 62-63 62l-62 0l-63 63h-125l-62-63h-63c0 0-62 0-62-62v-188c0-62 62-62 62-62c0 0 95 0 189 0c-1-11-1-21-1-32c0-88 40-167 104-219h-417z m330 315c-6-1-12-2-17-2c-52 0-94 42-94 94c0 52 42 94 94 94c44 0 82-32 91-74c-33-31-59-69-74-112z m264-315c-121 1-219 99-219 219c0 121 98 219 219 219c121 0 218-98 219-219c-1-120-98-218-219-219z" horiz-adv-x="1000" />
<glyph glyph-name="book_image_information" unicode="&#xe845;" d="m688-25h62v188h-62v-188z m0 313v-63h62v63h-62z m312-157c0 123-78 227-187 265v329h-63v63h63v62h-719c-3 0-22 0-45-11c-24-10-50-40-49-83c0 0 0 0 0 0v-844c0-62 63-62 63-62h658l0 0c154 1 279 127 279 281z m-911 595c-5 0-13 3-18 7c-4 4-8 8-8 23c1 20 6 22 14 27c4 2 9 3 12 4c4 1 5 0 5 1h594v-63h-594c0 0-1 0-5 1z m36-814v751h625v-252c-10 1-21 2-31 2c-11 0-21-1-31-2c0 0 0 1 0 2c0 62-63 62-63 62l-62 0l-63 63h-125l-62-63h-63c0 0-62 0-62-62v-188c0-62 62-62 62-62c0 0 95 0 189 0c-1-11-1-21-1-32c0-88 40-167 104-219h-417z m330 315c-6-1-12-2-17-2c-52 0-94 42-94 94c0 52 42 94 94 94c44 0 82-32 91-74c-33-31-59-69-74-112z m264-315c-121 1-219 99-219 219c0 121 98 219 219 219c121 0 218-98 219-219c-1-120-98-218-219-219z" horiz-adv-x="1000" />
<glyph glyph-name="book_image_pause" unicode="&#xe846;" d="m625 225l63 0l0-187l-63 0z m125 0l63 0l0-187l-63 0z m250-94c0 123-78 227-187 265v329h-63v63h63v62h-719c-3 0-22 0-45-11c-24-10-50-40-49-83c0 0 0 0 0 0v-844c0-62 63-62 63-62h658l0 0c154 1 279 127 279 281z m-911 595c-5 0-13 3-18 7c-4 4-8 8-8 23c1 20 6 22 14 27c4 2 9 3 12 4c4 1 5 0 5 1h594v-63h-594c0 0-1 0-5 1z m36-814v751h625v-252c-10 1-21 2-31 2c-11 0-21-1-31-2c0 0 0 1 0 2c0 62-63 62-63 62l-62 0l-63 63h-125l-62-63h-63c0 0-62 0-62-62v-188c0-62 62-62 62-62c0 0 95 0 189 0c-1-11-1-21-1-32c0-88 40-167 104-219h-417z m330 315c-6-1-12-2-17-2c-52 0-94 42-94 94c0 52 42 94 94 94c44 0 82-32 91-74c-33-31-59-69-74-112z m264-315c-121 1-219 99-219 219c0 121 98 219 219 219c121 0 218-98 219-219c-1-120-98-218-219-219z" horiz-adv-x="1000" />
<glyph glyph-name="book_image_remove" unicode="&#xe847;" d="m1000 131c0 123-78 227-187 265v329h-63v63h63v62h-719c-3 0-22 0-45-11c-24-10-50-40-49-83c0 0 0 0 0 0v-844c0-62 63-62 63-62h658l0 0c154 1 279 127 279 281z m-911 595c-5 0-13 3-18 7c-4 4-8 8-8 23c1 20 6 22 14 27c4 2 9 3 12 4c4 1 5 0 5 1h594v-63h-594c0 0-1 0-5 1z m36-814v751h625v-252c-10 1-21 2-31 2c-11 0-21-1-31-2c0 0 0 1 0 2c0 62-63 62-63 62l-62 0l-63 63h-125l-62-63h-63c0 0-62 0-62-62v-188c0-62 62-62 62-62c0 0 95 0 189 0c-1-11-1-21-1-32c0-88 40-167 104-219h-417z m330 315c-6-1-12-2-17-2c-52 0-94 42-94 94c0 52 42 94 94 94c44 0 82-32 91-74c-33-31-59-69-74-112z m264-315c-121 1-219 99-219 219c0 121 98 219 219 219c121 0 218-98 219-219c-1-120-98-218-219-219z m-156 251l312 0l0-63l-312 0z" horiz-adv-x="1000" />
<glyph glyph-name="book_image_run" unicode="&#xe848;" d="m813 131l-125 125l0-250z m187 0c0 123-78 227-187 265v329h-63v63h63v62h-719c-3 0-22 0-45-11c-24-10-50-40-49-83c0 0 0 0 0 0v-844c0-62 63-62 63-62h658l0 0c154 1 279 127 279 281z m-911 595c-5 0-13 3-18 7c-4 4-8 8-8 23c1 20 6 22 14 27c4 2 9 3 12 4c4 1 5 0 5 1h594v-63h-594c0 0-1 0-5 1z m36-814v751h625v-252c-10 1-21 2-31 2c-11 0-21-1-31-2c0 0 0 1 0 2c0 62-63 62-63 62l-62 0l-63 63h-125l-62-63h-63c0 0-62 0-62-62v-188c0-62 62-62 62-62c0 0 95 0 189 0c-1-11-1-21-1-32c0-88 40-167 104-219h-417z m330 315c-6-1-12-2-17-2c-52 0-94 42-94 94c0 52 42 94 94 94c44 0 82-32 91-74c-33-31-59-69-74-112z m264-315c-121 1-219 99-219 219c0 121 98 219 219 219c121 0 218-98 219-219c-1-120-98-218-219-219z" horiz-adv-x="1000" />
<glyph glyph-name="book_image_security" unicode="&#xe849;" d="m817 163c0 4 0 8 0 12c0 22-2 47-17 71c-14 24-45 42-81 42c-37 0-67-18-82-42c-14-24-17-49-17-71c0-4 0-8 0-12h-26v-157h250v157h-27z m-135 12c0 15 3 30 8 38c6 7 9 11 29 12c20-1 23-5 28-12c5-8 8-23 8-38c0-4 0-8-1-12h-71c0 4-1 8-1 12z m318-44c0 123-78 227-187 265v329h-63v63h63v62h-719c-3 0-22 0-45-11c-24-10-50-40-49-83c0 0 0 0 0 0v-844c0-62 63-62 63-62h658l0 0c154 1 279 127 279 281z m-911 595c-5 0-13 3-18 7c-4 4-8 8-8 23c1 20 6 22 14 27c4 2 9 3 12 4c4 1 5 0 5 1h594v-63h-594c0 0-1 0-5 1z m36-814v751h625v-252c-10 1-21 2-31 2c-11 0-21-1-31-2c0 0 0 1 0 2c0 62-63 62-63 62l-62 0l-63 63h-125l-62-63h-63c0 0-62 0-62-62v-188c0-62 62-62 62-62c0 0 95 0 189 0c-1-11-1-21-1-32c0-88 40-167 104-219h-417z m330 315c-6-1-12-2-17-2c-52 0-94 42-94 94c0 52 42 94 94 94c44 0 82-32 91-74c-33-31-59-69-74-112z m264-315c-121 1-219 99-219 219c0 121 98 219 219 219c121 0 218-98 219-219c-1-120-98-218-219-219z" horiz-adv-x="1000" />
<glyph glyph-name="book_image_settings" unicode="&#xe84a;" d="m875 100v63h-52c-2 6-4 12-8 19l38 37l-45 44l-36-37c-7 4-14 7-22 10v52h-62v-52c-8-3-14-5-21-9l-35 36l-45-44l36-36c-4-7-6-13-9-20h-51v-63h51c3-8 6-15 10-22l-37-36l44-44l38 37c6-3 12-6 18-8v-52h63v52c7 2 14 5 20 9l38-38l44 44l-37 38c3 6 6 13 8 20h52z m-156-16c-26 1-47 21-47 47c0 26 21 47 47 47c26 0 47-21 47-47c0-26-21-46-47-47z m281 47c0 123-78 227-187 265v329h-63v63h63v62h-719c-3 0-22 0-45-11c-24-10-50-40-49-83c0 0 0 0 0 0v-844c0-62 63-62 63-62h658l0 0c154 1 279 127 279 281z m-911 595c-5 0-13 3-18 7c-4 4-8 8-8 23c1 20 6 22 14 27c4 2 9 3 12 4c4 1 5 0 5 1h594v-63h-594c0 0-1 0-5 1z m36-814v751h625v-252c-10 1-21 2-31 2c-11 0-21-1-31-2c0 0 0 1 0 2c0 62-63 62-63 62l-62 0l-63 63h-125l-62-63h-63c0 0-62 0-62-62v-188c0-62 62-62 62-62c0 0 95 0 189 0c-1-11-1-21-1-32c0-88 40-167 104-219h-417z m330 315c-6-1-12-2-17-2c-52 0-94 42-94 94c0 52 42 94 94 94c44 0 82-32 91-74c-33-31-59-69-74-112z m264-315c-121 1-219 99-219 219c0 121 98 219 219 219c121 0 218-98 219-219c-1-120-98-218-219-219z" horiz-adv-x="1000" />
<glyph glyph-name="book_image_stop" unicode="&#xe84b;" d="m625 225l188 0l0-187l-188 0z m375-94c0 123-78 227-187 265v329h-63v63h63v62h-719c-3 0-22 0-45-11c-24-10-50-40-49-83c0 0 0 0 0 0v-844c0-62 63-62 63-62h658l0 0c154 1 279 127 279 281z m-911 595c-5 0-13 3-18 7c-4 4-8 8-8 23c1 20 6 22 14 27c4 2 9 3 12 4c4 1 5 0 5 1h594v-63h-594c0 0-1 0-5 1z m36-814v751h625v-252c-10 1-21 2-31 2c-11 0-21-1-31-2c0 0 0 1 0 2c0 62-63 62-63 62l-62 0l-63 63h-125l-62-63h-63c0 0-62 0-62-62v-188c0-62 62-62 62-62c0 0 95 0 189 0c-1-11-1-21-1-32c0-88 40-167 104-219h-417z m330 315c-6-1-12-2-17-2c-52 0-94 42-94 94c0 52 42 94 94 94c44 0 82-32 91-74c-33-31-59-69-74-112z m264-315c-121 1-219 99-219 219c0 121 98 219 219 219c121 0 218-98 219-219c-1-120-98-218-219-219z" horiz-adv-x="1000" />
<glyph glyph-name="bookmark" unicode="&#xe84c;" d="m625 788v62h-531c-3 0-22 0-45-11c-24-10-50-40-49-83c0 0 0 0 0 0v-656c0-62 63-62 63-62h250v-188l93 62l94-62v188h125v687h-62v63h62z m-62-688h-438v563h438v-563z m-63 625h-406c0 0-1 0-5 1c-5 0-13 3-18 7c-4 4-8 8-8 23c1 20 6 22 14 27c4 2 9 3 12 4c4 1 5 0 5 1h406v-63z" horiz-adv-x="1000" />
<glyph glyph-name="bookmark_settings" unicode="&#xe84d;" d="m875 100v63h-52c-2 6-4 12-8 19l38 37l-45 44l-36-37c-7 4-14 7-22 10v52h-62v-52c-8-3-14-5-21-9l-35 36l-45-44l36-36c-4-7-6-13-9-20h-51v-63h51c3-8 6-15 10-22l-37-36l44-44l38 37c6-3 12-6 18-8v-52h63v52c7 2 14 5 20 9l38-38l44 44l-37 38c3 6 6 13 8 20h52z m-156-16c-26 1-47 21-47 47c0 26 21 47 47 47c26 0 47-21 47-47c0-26-21-46-47-47z m0 329c-33 0-65-6-94-17v329h-62v63h62v62h-531c-3 0-22 0-45-11c-24-10-50-40-49-83c0 0 0 0 0 0v-656c0-62 63-62 63-62h250v-188l93 62l94-62v105c52-64 130-105 219-105c155 0 281 126 281 281c0 156-126 282-281 282z m-630 313c-5 0-13 3-18 7c-4 4-8 8-8 23c1 20 6 22 14 27c4 2 9 3 12 4c4 1 5 0 5 1h406v-63h-406c0 0-1 0-5 1z m36-626v563h438v-298c-76-50-125-136-125-234c0-10 0-21 1-31h-314z m594-188c-121 1-219 99-219 219c0 121 98 219 219 219c121 0 218-98 219-219c-1-120-98-218-219-219z" horiz-adv-x="1000" />
<glyph glyph-name="book_sans" unicode="&#xe84e;" d="m844 819v-63h-63v-62h63v-875h-750c0 0-63 0-63 62v843c0 1 0 1 0 1c-1 42 26 72 49 83c23 11 42 11 45 11h719m-719-125c0 0 0 0 0 0h594v62h-594c0 0-1 0-5 0c-3-1-8-2-12-4c-8-6-13-7-14-27c0-16 4-19 8-23c5-4 13-7 18-8c3 0 5 0 5 0m31-813h625v750h-625v-750" horiz-adv-x="1000" />
<glyph glyph-name="book_sans_add" unicode="&#xe84f;" d="m688 163l-125 0l0-63l125 0l0-125l62 0l0 125l125 0l0 63l-125 0l0 125l-62 0z m312-32c0 123-78 226-187 265v329h-63v63h63v62h-719c-3 0-22 0-45-11c-24-10-50-40-49-83c0 0 0 0 0 0v-844c0-62 63-62 63-62h658l0 0c154 1 279 127 279 281z m-911 595c-5 0-13 3-18 7c-4 4-8 8-8 23c1 20 6 22 14 27c4 2 9 3 12 4c4 1 5 0 5 1h594v-63h-594c0 0-1 0-5 1z m36-814v751h625v-252c-10 1-21 2-31 2c-156 0-281-126-281-282c0-88 40-167 104-219h-417z m594 0c-121 1-219 99-219 219c0 121 98 219 219 219c121 0 218-98 219-219c-1-120-98-218-219-219z" horiz-adv-x="1000" />
<glyph glyph-name="book_sans_down" unicode="&#xe850;" d="m719 38l125 125l-250 0z m281 93c0 123-78 227-187 265v329h-63v63h63v62h-719c-3 0-22 0-45-11c-24-10-50-40-49-83c0 0 0 0 0 0v-844c0-62 63-62 63-62h658l0 0c154 1 279 127 279 281z m-911 595c-5 0-13 3-18 7c-4 4-8 8-8 23c1 20 6 22 14 27c4 2 9 3 12 4c4 1 5 0 5 1h594v-63h-594c0 0-1 0-5 1z m36-814v751h625v-252c-10 1-21 2-31 2c-156 0-281-126-281-282c0-88 40-167 104-219h-417z m594 0c-121 1-219 99-219 219c0 121 98 219 219 219c121 0 218-98 219-219c-1-120-98-218-219-219z" horiz-adv-x="1000" />
<glyph glyph-name="book_sans_information" unicode="&#xe851;" d="m688-25h62v188h-62v-188z m0 313v-63h62v63h-62z m312-157c0 123-78 227-187 265v329h-63v63h63v62h-719c-3 0-22 0-45-11c-24-10-50-40-49-83c0 0 0 0 0 0v-844c0-62 63-62 63-62h658l0 0c154 1 279 127 279 281z m-911 595c-5 0-13 3-18 7c-4 4-8 8-8 23c1 20 6 22 14 27c4 2 9 3 12 4c4 1 5 0 5 1h594v-63h-594c0 0-1 0-5 1z m36-814v751h625v-252c-10 1-21 2-31 2c-156 0-281-126-281-282c0-88 40-167 104-219h-417z m594 0c-121 1-219 99-219 219c0 121 98 219 219 219c121 0 218-98 219-219c-1-120-98-218-219-219z" horiz-adv-x="1000" />
<glyph glyph-name="book_sans_remove" unicode="&#xe852;" d="m563 163l312 0l0-63l-312 0z m437-32c0 123-78 226-187 265v329h-63v63h63v62h-719c-3 0-22 0-45-11c-24-10-50-40-49-83c0 0 0 0 0 0v-844c0-62 63-62 63-62h658l0 0c154 1 279 127 279 281z m-911 595c-5 0-13 3-18 7c-4 4-8 8-8 23c1 20 6 22 14 27c4 2 9 3 12 4c4 1 5 0 5 1h594v-63h-594c0 0-1 0-5 1z m36-814v751h625v-252c-10 1-21 2-31 2c-156 0-281-126-281-282c0-88 40-167 104-219h-417z m594 0c-121 1-219 99-219 219c0 121 98 219 219 219c121 0 218-98 219-219c-1-120-98-218-219-219z" horiz-adv-x="1000" />
<glyph glyph-name="book_sans_run" unicode="&#xe853;" d="m813 131l-125 125l0-250z m187 0c0 123-78 227-187 265v329h-63v63h63v62h-719c-3 0-22 0-45-11c-24-10-50-40-49-83c0 0 0 0 0 0v-844c0-62 63-62 63-62h658l0 0c154 1 279 127 279 281z m-911 595c-5 0-13 3-18 7c-4 4-8 8-8 23c1 20 6 22 14 27c4 2 9 3 12 4c4 1 5 0 5 1h594v-63h-594c0 0-1 0-5 1z m36-814v751h625v-252c-10 1-21 2-31 2c-156 0-281-126-281-282c0-88 40-167 104-219h-417z m594 0c-121 1-219 99-219 219c0 121 98 219 219 219c121 0 218-98 219-219c-1-120-98-218-219-219z" horiz-adv-x="1000" />
<glyph glyph-name="book_sans_security" unicode="&#xe854;" d="m817 163c0 4 0 8 0 12c0 22-2 47-17 71c-14 24-45 42-81 42c-37 0-67-18-82-42c-14-24-17-49-17-71c0-4 0-8 0-12h-26v-157h250v157h-27z m-135 12c0 15 3 30 8 38c6 7 9 11 29 12c20-1 23-5 28-12c5-8 8-23 8-38c0-4 0-8-1-12h-71c0 4-1 8-1 12z m318-44c0 123-78 226-187 265v329h-63v63h63v62h-719c-3 0-22 0-45-11c-24-10-50-40-49-83c0 0 0 0 0 0v-844c0-62 63-62 63-62h658l0 0c154 1 279 127 279 281z m-911 595c-5 0-13 3-18 7c-4 4-8 8-8 23c1 20 6 22 14 27c4 2 9 3 12 4c4 1 5 0 5 1h594v-63h-594c0 0-1 0-5 1z m36-814v751h625v-252c-10 1-21 2-31 2c-156 0-281-126-281-282c0-88 40-167 104-219h-417z m594 0c-121 1-219 99-219 219c0 121 98 219 219 219c121 0 218-98 219-219c-1-120-98-218-219-219z" horiz-adv-x="1000" />
<glyph glyph-name="book_sans_up" unicode="&#xe855;" d="m719 225l-125-125l250 0z m281-94c0 123-78 227-187 265v329h-63v63h63v62h-719c-3 0-22 0-45-11c-24-10-50-40-49-83c0 0 0 0 0 0v-844c0-62 63-62 63-62h658l0 0c154 1 279 127 279 281z m-911 595c-5 0-13 3-18 7c-4 4-8 8-8 23c1 20 6 22 14 27c4 2 9 3 12 4c4 1 5 0 5 1h594v-63h-594c0 0-1 0-5 1z m36-814v751h625v-252c-10 1-21 2-31 2c-156 0-281-126-281-282c0-88 40-167 104-219h-417z m594 0c-121 1-219 99-219 219c0 121 98 219 219 219c121 0 218-98 219-219c-1-120-98-218-219-219z" horiz-adv-x="1000" />
<glyph glyph-name="book_text" unicode="&#xe856;" d="m719 256l-500 0l0 0l0 63l500 0z m0 125l-500 0l0 0l0 63l500 0z m-125-250l-375 0l0 0l0 63l375 0z m250 688v-63h-63v-62h63v-875h-750c0 0-63 0-63 62v843c0 1 0 1 0 1c-1 42 26 72 49 83c23 11 42 11 45 11h719m-719-125c0 0 0 0 0 0h594v62h-594c0 0-1 0-5 0c-3-1-8-2-12-4c-8-6-13-7-14-27c0-16 4-19 8-23c5-4 13-7 18-8c3 0 5 0 5 0m31-813h625v750h-625v-750" horiz-adv-x="1000" />
<glyph glyph-name="book_text_add" unicode="&#xe857;" d="m688 163l-125 0l0-63l125 0l0-125l62 0l0 125l125 0l0 63l-125 0l0 125l-62 0z m312-32c0 123-78 227-187 265v329h-63v63h63v62h-719c-3 0-22 0-45-11c-24-10-50-40-49-83c0 0 0 0 0 0v-844c0-62 63-62 63-62h658l0 0c154 1 279 127 279 281z m-911 595c-5 0-13 3-18 7c-4 4-8 8-8 23c1 20 6 22 14 27c4 2 9 3 12 4c4 1 5 0 5 1h594v-63h-594c0 0-1 0-5 1z m36-814v751h625v-252c-10 1-21 2-31 2c-67 0-129-24-177-63h-354v-62h297c-13-20-23-41-31-63h-266v-62h251c-1-11-2-21-2-32c0-88 41-167 105-219h-417z m594 0c-121 1-219 99-219 219c0 121 98 219 219 219c121 0 218-98 219-219c-1-120-98-218-219-219z m-31 563h-500v-62h500v62z" horiz-adv-x="1000" />
<glyph glyph-name="book_text_down" unicode="&#xe858;" d="m719 38l125 125l-250 0z m281 93c0 123-78 227-187 265v329h-63v63h63v62h-719c-3 0-22 0-45-11c-24-10-50-40-49-83c0 0 0 0 0 0v-844c0-62 63-62 63-62h658l0 0c154 1 279 127 279 281z m-911 595c-5 0-13 3-18 7c-4 4-8 8-8 23c1 20 6 22 14 27c4 2 9 3 12 4c4 1 5 0 5 1h594v-63h-594c0 0-1 0-5 1z m36-814v751h625v-252c-10 1-21 2-31 2c-67 0-129-24-177-63h-354v-62h297c-13-20-23-41-31-63h-266v-62h251c-1-11-2-21-2-32c0-88 41-167 105-219h-417z m594 0c-121 1-219 99-219 219c0 121 98 219 219 219c121 0 218-98 219-219c-1-120-98-218-219-219z m-31 563h-500v-62h500v62z" horiz-adv-x="1000" />
<glyph glyph-name="book_text_information" unicode="&#xe859;" d="m688-25h62v188h-62v-188z m0 313v-63h62v63h-62z m312-157c0 123-78 227-187 265v329h-63v63h63v62h-719c-3 0-22 0-45-11c-24-10-50-40-49-83c0 0 0 0 0 0v-844c0-62 63-62 63-62h658l0 0c154 1 279 127 279 281z m-911 595c-5 0-13 3-18 7c-4 4-8 8-8 23c1 20 6 22 14 27c4 2 9 3 12 4c4 1 5 0 5 1h594v-63h-594c0 0-1 0-5 1z m36-814v751h625v-252c-10 1-21 2-31 2c-67 0-129-24-177-63h-354v-62h297c-13-20-23-41-31-63h-266v-62h251c-1-11-2-21-2-32c0-88 41-167 105-219h-417z m594 0c-121 1-219 99-219 219c0 121 98 219 219 219c121 0 218-98 219-219c-1-120-98-218-219-219z m-31 563h-500v-62h500v62z" horiz-adv-x="1000" />
<glyph glyph-name="book_text_remove" unicode="&#xe85a;" d="m563 163l312 0l0-63l-312 0z m437-32c0 123-78 227-187 265v329h-63v63h63v62h-719c-3 0-22 0-45-11c-24-10-50-40-49-83c0 0 0 0 0 0v-844c0-62 63-62 63-62h658l0 0c154 1 279 127 279 281z m-911 595c-5 0-13 3-18 7c-4 4-8 8-8 23c1 20 6 22 14 27c4 2 9 3 12 4c4 1 5 0 5 1h594v-63h-594c0 0-1 0-5 1z m36-814v751h625v-252c-10 1-21 2-31 2c-67 0-129-24-177-63h-354v-62h297c-13-20-23-41-31-63h-266v-62h251c-1-11-2-21-2-32c0-88 41-167 105-219h-417z m594 0c-121 1-219 99-219 219c0 121 98 219 219 219c121 0 218-98 219-219c-1-120-98-218-219-219z m-31 563h-500v-62h500v62z" horiz-adv-x="1000" />
<glyph glyph-name="book_text_run" unicode="&#xe85b;" d="m813 131l-125 125l0-250z m187 0c0 123-78 227-187 265v329h-63v63h63v62h-719c-3 0-22 0-45-11c-24-10-50-40-49-83c0 0 0 0 0 0v-844c0-62 63-62 63-62h658l0 0c154 1 279 127 279 281z m-911 595c-5 0-13 3-18 7c-4 4-8 8-8 23c1 20 6 22 14 27c4 2 9 3 12 4c4 1 5 0 5 1h594v-63h-594c0 0-1 0-5 1z m36-814v751h625v-252c-10 1-21 2-31 2c-67 0-129-24-177-63h-354v-62h297c-13-20-23-41-31-63h-266v-62h251c-1-11-2-21-2-32c0-88 41-167 105-219h-417z m594 0c-121 1-219 99-219 219c0 121 98 219 219 219c121 0 218-98 219-219c-1-120-98-218-219-219z m-31 563h-500v-62h500v62z" horiz-adv-x="1000" />
<glyph glyph-name="book_text_security" unicode="&#xe85c;" d="m817 163c0 4 0 8 0 12c0 21-2 47-17 71c-14 24-45 42-81 42c-37 0-67-18-82-42c-14-24-17-50-17-71c0-4 0-8 0-12h-26v-157h250v157h-27z m-135 12c0 15 3 30 8 38c6 7 9 11 29 12c20-1 23-5 28-12c5-8 8-23 8-38c0-4 0-8-1-12h-71c0 4-1 8-1 12z m318-44c0 123-78 227-187 265v329h-63v63h63v62h-719c-3 0-22 0-45-11c-24-10-50-40-49-83c0 0 0 0 0 0v-844c0-62 63-62 63-62h658l0 0c154 1 279 127 279 281z m-911 595c-5 0-13 3-18 7c-4 4-8 8-8 23c1 20 6 22 14 27c4 2 9 3 12 4c4 1 5 0 5 1h594v-63h-594c0 0-1 0-5 1z m36-814v751h625v-252c-10 1-21 2-31 2c-67 0-129-24-177-63h-354v-62h297c-13-20-23-41-31-63h-266v-62h251c-1-11-2-21-2-32c0-88 41-167 105-219h-417z m594 0c-121 1-219 99-219 219c0 121 98 219 219 219c121 0 218-98 219-219c-1-120-98-218-219-219z m-31 563h-500v-62h500v62z" horiz-adv-x="1000" />
<glyph glyph-name="book_text_settings" unicode="&#xe85d;" d="m875 100v63h-52c-2 6-4 12-8 19l38 37l-45 44l-36-37c-7 4-14 7-22 10v52h-62v-52c-8-3-14-5-21-9l-35 36l-45-44l36-36c-4-7-6-13-9-20h-51v-63h51c3-8 6-15 10-22l-37-36l44-44l38 37c6-3 12-6 18-8v-52h63v52c7 2 14 5 20 9l38-38l44 44l-37 38c3 6 6 13 8 20h52z m-156-16c-26 1-47 21-47 47c0 26 21 47 47 47c26 0 47-21 47-47c0-26-21-46-47-47z m281 47c0 123-78 227-187 265v329h-63v63h63v62h-719c-3 0-22 0-45-11c-24-10-50-40-49-83c0 0 0 0 0 0v-844c0-62 63-62 63-62h658l0 0c154 1 279 127 279 281z m-911 595c-5 0-13 3-18 7c-4 4-8 8-8 23c1 20 6 22 14 27c4 2 9 3 12 4c4 1 5 0 5 1h594v-63h-594c0 0-1 0-5 1z m36-814v751h625v-252c-10 1-21 2-31 2c-67 0-129-24-177-63h-354v-62h297c-13-20-23-41-31-63h-266v-62h251c-1-11-2-21-2-32c0-88 41-167 105-219h-417z m594 0c-121 1-219 99-219 219c0 121 98 219 219 219c121 0 218-98 219-219c-1-120-98-218-219-219z m-31 563h-500v-62h500v62z" horiz-adv-x="1000" />
<glyph glyph-name="book_text_stop" unicode="&#xe85e;" d="m625 225l188 0l0-187l-188 0z m375-94c0 123-78 227-187 265v329h-63v63h63v62h-719c-3 0-22 0-45-11c-24-10-50-40-49-83c0 0 0 0 0 0v-844c0-62 63-62 63-62h658l0 0c154 1 279 127 279 281z m-911 595c-5 0-13 3-18 7c-4 4-8 8-8 23c1 20 6 22 14 27c4 2 9 3 12 4c4 1 5 0 5 1h594v-63h-594c0 0-1 0-5 1z m36-814v751h625v-252c-10 1-21 2-31 2c-67 0-129-24-177-63h-354v-62h297c-13-20-23-41-31-63h-266v-62h251c-1-11-2-21-2-32c0-88 41-167 105-219h-417z m594 0c-121 1-219 99-219 219c0 121 98 219 219 219c121 0 218-98 219-219c-1-120-98-218-219-219z m-31 563h-500v-62h500v62z" horiz-adv-x="1000" />
<glyph glyph-name="book_text_up" unicode="&#xe85f;" d="m719 225l-125-125l250 0z m281-94c0 123-78 227-187 265v329h-63v63h63v62h-719c-3 0-22 0-45-11c-24-10-50-40-49-83c0 0 0 0 0 0v-844c0-62 63-62 63-62h658l0 0c154 1 279 127 279 281z m-911 595c-5 0-13 3-18 7c-4 4-8 8-8 23c1 20 6 22 14 27c4 2 9 3 12 4c4 1 5 0 5 1h594v-63h-594c0 0-1 0-5 1z m36-814v751h625v-252c-10 1-21 2-31 2c-67 0-129-24-177-63h-354v-62h297c-13-20-23-41-31-63h-266v-62h251c-1-11-2-21-2-32c0-88 41-167 105-219h-417z m594 0c-121 1-219 99-219 219c0 121 98 219 219 219c121 0 218-98 219-219c-1-120-98-218-219-219z m-31 563h-500v-62h500v62z" horiz-adv-x="1000" />
<glyph glyph-name="brightness_brighten" unicode="&#xe860;" d="m563 413v125h-125v-125h-125v-125h125v-125h125v125h125v125h-125z m-63 250c-173 0-312-140-312-313c0-173 139-312 312-312c173 0 313 139 313 312c0 173-140 313-313 313z m0-563c-138 0-250 112-250 250c0 138 112 250 250 250c138 0 250-112 250-250c0-138-112-250-250-250z m31 750h-62v-125h62v125z m-62-1000h62v125h-62v-125z m290 197l94-94l44 44l-94 94l-44-44z m-518 606l-94 94l-44-44l94-94l44 44z m656 50l-44 44l-94-94l44-44l94 94z m-794-706l44-44l94 94l-44 44l-94-94z m22 384h-125v-62h125v62z m750 0v-62h125v62h-125z" horiz-adv-x="1000" />
<glyph glyph-name="brightness_darken" unicode="&#xe861;" d="m500 663c-173 0-312-140-312-313c0-173 139-312 312-312c173 0 313 139 313 312c0 173-140 313-313 313z m0-563c-138 0-250 112-250 250c0 138 112 250 250 250c138 0 250-112 250-250c0-138-112-250-250-250z m-187 313v-125h375v125h-375z m218 437h-62v-125h62v125z m-62-1000h62v125h-62v-125z m290 197l94-94l44 44l-94 94l-44-44z m-518 606l-94 94l-44-44l94-94l44 44z m656 50l-44 44l-94-94l44-44l94 94z m-794-706l44-44l94 94l-44 44l-94-94z m22 384h-125v-62h125v62z m750 0v-62h125v62h-125z" horiz-adv-x="1000" />
<glyph glyph-name="browser_window" unicode="&#xe862;" d="m0 850v-875h1000l0 875h-1000z m688-62v-63h-375v63h375z m-438 0v-63h-62v63h62z m-187 0h62v-63h-62v63z m875-750h-875v625h875v-625z m0 687h-125v63h125v-63z m-813-187l313 0l0-313l-313 0z m750 0l0-63l-312 0l0 0l0 63z m0-125l0-63l-312 0l0 0l0 63z m-125-125l0-63l-187 0l0 0l0 63z" horiz-adv-x="1000" />
<glyph glyph-name="browser_window_add" unicode="&#xe863;" d="m688 163l-125 0l0-63l125 0l0-125l62 0l0 125l125 0l0 63l-125 0l0 125l-62 0z m187 375h-312v-63h312v63z m-437 0h-313v-313h313v313z m562 312h-1000v-875h485c50-75 136-125 234-125c155 0 281 126 281 281c0 12-1 23-2 34l2-2v687z m-687-62h375v-63h-375v63z m-125 0h62v-63h-62v63z m-125 0h62v-63h-62v63z m656-872c-119 0-215 97-215 215c0 119 96 215 215 215c119 0 215-96 215-215c0-118-96-215-215-215z m219 392c-18 22-39 41-63 57v48h-156c0 0 0 0 0 0c0 0 0 0-1 0h-155v-48c-76-50-125-136-125-234c0-33 5-64 16-93h-391v625h875v-355z m0 417h-125v63h125v-63z" horiz-adv-x="1000" />
<glyph glyph-name="browser_window_cancel" unicode="&#xe864;" d="m719 69l62-63l63 63l-63 62l63 63l-63 62l-62-62l-63 62l-62-62l62-63l-62-62l62-63z m156 469h-312v-63h312v63z m-437 0h-313v-313h313v313z m562 312h-1000v-875h485c50-75 136-125 234-125c155 0 281 126 281 281c0 12-1 23-2 34l2-2v687z m-687-62h375v-63h-375v63z m-125 0h62v-63h-62v63z m-125 0h62v-63h-62v63z m656-872c-119 0-215 97-215 215c0 119 96 215 215 215c119 0 215-96 215-215c0-118-96-215-215-215z m219 392c-18 22-39 41-63 57v48h-156c0 0 0 0 0 0c0 0 0 0-1 0h-155v-48c-76-50-125-136-125-234c0-33 5-64 16-93h-391v625h875v-355z m0 417h-125v63h125v-63z" horiz-adv-x="1000" />
<glyph glyph-name="browser_window_remove" unicode="&#xe865;" d="m563 163l312 0l0-63l-312 0z m312 375h-312v-63h312v63z m-437 0h-313v-313h313v313z m562 312h-1000v-875h485c50-75 136-125 234-125c155 0 281 126 281 281c0 12-1 23-2 34l2-2v687z m-687-62h375v-63h-375v63z m-125 0h62v-63h-62v63z m-125 0h62v-63h-62v63z m656-872c-119 0-215 97-215 215c0 119 96 215 215 215c119 0 215-96 215-215c0-118-96-215-215-215z m219 392c-18 22-39 41-63 57v48h-156c0 0 0 0 0 0c0 0 0 0-1 0h-155v-48c-76-50-125-136-125-234c0-33 5-64 16-93h-391v625h875v-355z m0 417h-125v63h125v-63z" horiz-adv-x="1000" />
<glyph glyph-name="browser_window_security" unicode="&#xe866;" d="m817 163c0 4 0 8 0 12c0 22-2 47-17 71c-14 24-45 42-81 42c-37 0-67-18-82-42c-14-24-17-49-17-71c0-4 0-8 0-12h-26v-157h250v157h-27z m-135 12c0 15 3 30 8 38c6 7 9 11 29 12c20-1 23-5 28-12c5-8 8-23 8-38c0-4 0-8-1-12h-71c0 4-1 8-1 12z m193 363h-312v-63h312v63z m-437 0h-313v-313h313v313z m562 312h-1000v-875h485c50-75 136-125 234-125c155 0 281 126 281 281c0 12-1 23-2 34l2-2v687z m-687-62h375v-63h-375v63z m-125 0h62v-63h-62v63z m-125 0h62v-63h-62v63z m656-872c-119 0-215 97-215 215c0 119 96 215 215 215c119 0 215-96 215-215c0-118-96-215-215-215z m219 392c-18 22-39 41-63 57v48h-156c0 0 0 0 0 0c0 0 0 0-1 0h-155v-48c-76-50-125-136-125-234c0-33 5-64 16-93h-391v625h875v-355z m0 417h-125v63h125v-63z" horiz-adv-x="1000" />
<glyph glyph-name="browser_window_settings" unicode="&#xe867;" d="m875 100v63h-52c-2 6-4 12-8 19l38 37l-45 44l-36-37c-7 4-14 7-22 10v52h-62v-52c-8-3-14-5-21-9l-35 36l-45-44l36-36c-4-7-6-13-9-20h-51v-63h51c3-8 6-15 10-22l-37-36l44-44l38 37c6-3 12-6 18-8v-52h63v52c7 2 14 5 20 9l38-38l44 44l-37 38c3 6 6 13 8 20h52z m-156-16c-26 1-47 21-47 47c0 26 21 47 47 47c26 0 47-21 47-47c0-26-21-46-47-47z m156 454h-312v-63h312v63z m-437 0h-313v-313h313v313z m562 312h-1000v-875h485c50-75 136-125 234-125c155 0 281 126 281 281c0 12-1 23-2 34l2-2v687z m-687-62h375v-63h-375v63z m-125 0h62v-63h-62v63z m-125 0h62v-63h-62v63z m656-872c-119 0-215 97-215 215c0 119 96 215 215 215c119 0 215-96 215-215c0-118-96-215-215-215z m219 392c-18 22-39 41-63 57v48h-156c0 0 0 0 0 0c0 0 0 0-1 0h-155v-48c-76-50-125-136-125-234c0-33 5-64 16-93h-391v625h875v-355z m0 417h-125v63h125v-63z" horiz-adv-x="1000" />
<glyph glyph-name="buy" unicode="&#xe868;" d="m750 38c0-52-42-94-94-94c-51 0-93 42-93 94c0 51 42 93 93 93c52 0 94-42 94-93z m-250 812c0 0-22 1-45-11c-23-11-49-41-49-83l-250 0c0 0-22 1-45-10c-23-12-48-42-48-83c0-15 5-25 10-37c-8-1-12 1-24-5c-23-12-49-42-49-83c0-28 12-48 26-63c-14-15-26-35-26-62c0-42 26-72 49-83c12-7 16-5 24-6c-5-11-10-22-10-36c0-42 25-72 48-83c23-12 45-11 45-11l219 0c0-52 42-94 94-94c52 0 94 42 94 94l187 0c54 0 90 20 107 44c7 9 5 10 7 18l136 0l0 63l-156 0l-31 0l0-31c0 0-1-6-6-13c-6-8-17-19-57-19l-212 0c-17 19-42 32-69 32c-28 0-52-13-70-32l-243 0c0 0-9 1-17 5c-8 4-14 6-14 27c0 20 6 22 14 26c8 4 17 5 17 5l250 0l32 0l0 62l-32 0l-250 0l-62 0c0 0-10 1-18 5c-8 4-13 6-13 27c0 20 5 22 13 26c8 4 18 5 18 5l281 0l31 0l0 62l-31 0l-281 0c0 0-10 1-18 5c-8 4-13 6-13 27c0 20 5 22 13 26c8 4 18 5 18 5l62 0l219 0l94 0l0 62l-94 0l-219 0c0 0-9 1-17 5c-8 4-14 6-14 27c0 20 6 22 14 26c8 4 17 5 17 5l277 0c7-8 14-17 22-21c23-11 45-10 45-10l162 0c5-17 11-33 22-44c16-19 36-29 55-37c38-14 74-13 74-13l0 62c0 0-27 1-52 10c-13 5-23 12-30 20c-8 8-12 16-12 33l0 31l-31 0l-188 0c0 0-9 1-18 5c-8 4-13 5-13 26c0 21 5 23 13 27c9 4 18 5 18 5l250 0c52 0 69-22 81-45c12-24 13-49 13-49l0-31l31 0l125 0l0 62l-102 0c-1 15 1 22-10 45c-20 39-65 80-138 80l-250 0z m94-375c-52 0-94-42-94-94c0-51 42-93 94-93c52 0 94 42 94 93c0 52-42 94-94 94z" horiz-adv-x="1000" />
<glyph glyph-name="calculator" unicode="&#xe869;" d="m188 850v-1000h625v1000h-625z m187-938h-125v63h125v-63z m0 126h-125v62h125v-62z m0 125h-125v62h125v-62z m0 125h-125v62h125v-62z m0 125h-125v62h125v-62z m188-501h-125v63h125v-63z m0 126h-125v62h125v-62z m-125 125v62h125v-62h-125z m125 125h-125v62h125v-62z m0 125h-125v62h125v-62z m187-501h-125v188h125v-188z m0 251h-125v62h125v-62z m0 125h-125v62h125v-62z m0 125h-125v62h125v-62z m0 187h-500v125h500v-125z" horiz-adv-x="1000" />
<glyph glyph-name="calendar" unicode="&#xe86a;" d="m877 790v60h-62v-60h-625v60h-63v-60h-127v-942h1005v942h-128z m61-875h-871v748h60v-63h63v63h625v-63h62v63h61v-748z m-373 185l187 0l0-62l-187 0z m0 375l125 0l0-62l-125 0z m62 0l63 0l0-437l-63 0z m-312-187l125 0l0-63l-125 0z m-63-188l188 0l0-62l-188 0z m0 375l188 0l0-62l-188 0z m188-62l62 0l0-125l-62 0z m0-188l62 0l0-125l-62 0z" horiz-adv-x="1000" />
<glyph glyph-name="cancel" unicode="&#xe86b;" d="m500 225l313-313l125 126l-313 312l313 313l-125 125l-313-313l-312 313l-125-125l312-313l-312-312l125-126z" horiz-adv-x="1000" />
<glyph glyph-name="category" unicode="&#xe86c;" d="m375 475l0-62l-125 0l0 125l63 0l0 250l-250 0l0-250l125 0l0-500l187 0l0-126l250 0l0 251l-250 0l0-63l-125 0l0 250l125 0l0-125l250 0l0 250z" horiz-adv-x="1000" />
<glyph glyph-name="category_add" unicode="&#xe86d;" d="m719 413c-33 0-65-6-94-17v79h-250v-62h-125v125h63v250h-250v-250h125v-500h187v-126h167c48-39 110-62 177-62c155 0 281 126 281 281c0 156-126 282-281 282z m-280-250h-64v-63h-125l0 250h125v-125h79c-7-20-12-41-15-62z m280-247c-119 0-215 97-215 215c0 119 96 215 215 215c119 0 215-96 215-215c0-118-96-215-215-215z m-31 59l62 0l0 125l125 0l0 63l-125 0l0 125l-62 0l0-125l-125 0l0-63l125 0z" horiz-adv-x="1000" />
<glyph glyph-name="category_edit" unicode="&#xe86e;" d="m594 6h94l-94 94v-94z m187 282l-156-157l94-93l156 156l-94 94z m-62 125c-33 0-65-6-94-17v79h-250v-62h-125v125h63v250h-250v-250h125v-500h187v-126h167c48-39 110-62 177-62c155 0 281 126 281 281c0 156-126 282-281 282z m-280-250h-64v-63h-125l0 250h125v-125h79c-7-20-12-41-15-62z m280-247c-119 0-215 97-215 215c0 119 96 215 215 215c119 0 215-96 215-215c0-118-96-215-215-215z" horiz-adv-x="1000" />
<glyph glyph-name="category_remove" unicode="&#xe86f;" d="m563 163l312 0l0-63l-312 0z m156 250c-33 0-65-6-94-17v79h-250v-62h-125v125h63v250h-250v-250h125v-500h187v-126h167c48-39 110-62 177-62c155 0 281 126 281 281c0 156-126 282-281 282z m-344-313h-125l0 250h125v-125h79c-7-20-12-41-15-62h-64v-63z m344-184c-119 0-215 97-215 215c0 119 96 215 215 215c119 0 215-96 215-215c0-118-96-215-215-215z" horiz-adv-x="1000" />
<glyph glyph-name="category_settings" unicode="&#xe870;" d="m875 100v63h-52c-2 6-4 12-8 19l38 37l-45 44l-36-37c-7 4-14 7-22 10v52h-62v-52c-8-3-14-5-21-9l-35 36l-45-44l36-36c-4-7-6-13-9-20h-51v-63h51c3-8 6-15 10-22l-37-36l44-44l38 37c6-3 12-6 18-8v-52h63v52c7 2 14 5 20 9l38-38l44 44l-37 38c3 6 6 13 8 20h52z m-156-16c-26 1-47 21-47 47c0 26 21 47 47 47c26 0 47-21 47-47c0-26-21-46-47-47z m0 329c-33 0-65-6-94-17v79h-250v-62h-125v125h63v250h-250v-250h125v-500h187v-126h167c48-39 110-62 177-62c155 0 281 126 281 281c0 156-126 282-281 282z m-280-250h-64v-63h-125l0 250h125v-125h79c-7-20-12-41-15-62z m280-247c-119 0-215 97-215 215c0 119 96 215 215 215c119 0 215-96 215-215c0-118-96-215-215-215z" horiz-adv-x="1000" />
<glyph glyph-name="cd" unicode="&#xe871;" d="m500 850c-276 0-500-224-500-500c0-276 224-500 500-500c276 0 500 224 500 500c0 276-224 500-500 500z m0-938c-242 1-437 196-437 438c0 242 195 437 437 438c242-1 437-196 438-438c-1-242-196-437-438-438z m0 626c-104 0-187-84-187-188c0-103 83-187 187-187c104 0 188 84 188 187c0 104-84 188-188 188z m0-313c-69 0-125 56-125 125c0 69 56 125 125 125c69 0 125-56 125-125c0-69-56-125-125-125z m0 188c-34 0-62-28-62-63c0-34 28-62 62-62c35 0 63 28 63 62c0 35-28 63-63 63z" horiz-adv-x="1000" />
<glyph glyph-name="cd_eject" unicode="&#xe872;" d="m594 100l250 0l0-62l-250 0z m125 188l-125-125l250 0z m281 62c0 276-224 500-500 500c-276 0-500-224-500-500c0-276 224-500 500-500c43 0 85 6 125 16c29-10 61-16 94-16c155 0 281 126 281 281c0 33-6 65-16 94c10 40 16 82 16 125z m-500-437c-242 0-437 195-437 437c0 242 195 437 437 438c242-1 437-196 438-438c-1-13-1-26-3-39c-51 62-129 102-216 102c-14 0-28-2-41-4c-25 75-95 129-178 129c-104 0-187-84-187-188c0-83 53-153 128-177c-2-14-3-28-3-42c0-87 39-165 101-216c-13-2-26-2-39-2z m61 451c-7 28-31 49-61 49c-34 0-62-28-62-63c0-30 20-54 48-61c-12-17-21-36-29-55c-48 17-82 62-82 116c0 69 56 125 125 125c54 0 99-34 116-82c-19-8-38-17-55-29z m158-452c-121 1-219 99-219 219c0 121 98 219 219 219c121 0 218-98 219-219c-1-120-98-218-219-219z" horiz-adv-x="1000" />
<glyph glyph-name="cd_pause" unicode="&#xe873;" d="m625 225l63 0l0-187l-63 0z m125 0l63 0l0-187l-63 0z m250 125c0 276-224 500-500 500c-276 0-500-224-500-500c0-276 224-500 500-500c43 0 85 6 125 16c29-10 61-16 94-16c155 0 281 126 281 281c0 33-6 65-16 94c10 40 16 82 16 125z m-500-438c-242 1-437 196-437 438c0 242 195 437 437 438c242-1 437-196 438-438c-1-13-1-26-3-39c-51 62-129 102-216 102c-14 0-28-2-41-4c-25 75-95 129-178 129c-104 0-187-84-187-188c0-83 53-153 128-178c-2-13-3-27-3-41c0-87 39-165 101-216c-13-2-26-2-39-3z m61 452c-7 28-31 49-61 49c-34 0-62-28-62-63c0-30 20-54 48-61c-12-17-21-36-29-55c-48 17-82 62-82 116c0 69 56 125 125 125c54 0 99-34 116-82c-19-8-38-17-55-29z m158-452c-121 1-219 99-219 219c0 121 98 219 219 219c121 0 218-98 219-219c-1-120-98-218-219-219z" horiz-adv-x="1000" />
<glyph glyph-name="cd_run" unicode="&#xe874;" d="m813 131l-125 125l0-250z m187 219c0 276-224 500-500 500c-276 0-500-224-500-500c0-276 224-500 500-500c43 0 85 6 125 16c29-10 61-16 94-16c155 0 281 126 281 281c0 33-6 65-16 94c10 40 16 82 16 125z m-500-438c-242 1-437 196-437 438c0 242 195 437 437 438c242-1 437-196 438-438c-1-13-1-26-3-39c-51 62-129 102-216 102c-14 0-28-2-41-4c-25 75-95 129-178 129c-104 0-187-84-187-188c0-83 53-153 128-178c-2-13-3-27-3-41c0-87 39-165 101-216c-13-2-26-2-39-3z m61 452c-7 28-31 49-61 49c-34 0-62-28-62-63c0-30 20-54 48-61c-12-17-21-36-29-55c-48 17-82 62-82 116c0 69 56 125 125 125c54 0 99-34 116-82c-19-8-38-17-55-29z m158-452c-121 1-219 99-219 219c0 121 98 219 219 219c121 0 218-98 219-219c-1-120-98-218-219-219z" horiz-adv-x="1000" />
<glyph glyph-name="cd_security" unicode="&#xe875;" d="m817 162c0 5 0 9 0 13c0 21-2 47-17 71c-14 24-45 42-81 41c-37 1-67-17-82-41c-14-24-17-50-17-71c0-4 0-8 0-13h-26v-156h250v156h-27z m-135 13c0 15 3 30 8 38c6 7 9 11 29 12c20-1 23-5 28-12c5-8 8-23 8-38c0-4 0-9-1-13h-71c0 5-1 9-1 13z m318 175c0 276-224 500-500 500c-276 0-500-224-500-500c0-276 224-500 500-500c43 0 85 6 125 16c29-10 61-16 94-16c155 0 281 126 281 281c0 33-6 65-16 94c10 40 16 82 16 125z m-500-438c-242 1-437 196-437 438c0 242 195 437 437 438c242-1 437-196 438-438c-1-13-1-26-3-39c-51 62-129 102-216 102c-14 0-28-2-41-4c-25 75-95 129-178 129c-104 0-187-84-187-188c0-83 53-153 128-178c-2-13-3-27-3-41c0-87 39-165 101-216c-13-2-26-2-39-3z m61 452c-7 28-31 49-61 49c-34 0-62-28-62-63c0-30 20-54 48-61c-12-17-21-36-29-55c-48 17-82 62-82 116c0 69 56 125 125 125c54 0 99-34 116-82c-19-8-38-17-55-29z m158-452c-121 1-219 99-219 219c0 121 98 219 219 219c121 0 218-98 219-219c-1-120-98-218-219-219z" horiz-adv-x="1000" />
<glyph glyph-name="cd_stop" unicode="&#xe876;" d="m625 225l188 0l0-187l-188 0z m375 125c0 276-224 500-500 500c-276 0-500-224-500-500c0-276 224-500 500-500c43 0 85 6 125 16c29-10 61-16 94-16c155 0 281 126 281 281c0 33-6 65-16 94c10 40 16 82 16 125z m-500-438c-242 1-437 196-437 438c0 242 195 437 437 438c242-1 437-196 438-438c-1-13-1-26-3-39c-51 62-129 102-216 102c-14 0-28-2-41-4c-25 75-95 129-178 129c-104 0-187-84-187-188c0-83 53-153 128-178c-2-13-3-27-3-41c0-87 39-165 101-216c-13-2-26-2-39-3z m61 452c-7 28-31 49-61 49c-34 0-62-28-62-63c0-30 20-54 48-61c-12-17-21-36-29-55c-48 17-82 62-82 116c0 69 56 125 125 125c54 0 99-34 116-82c-19-8-38-17-55-29z m158-452c-121 1-219 99-219 219c0 121 98 219 219 219c121 0 218-98 219-219c-1-120-98-218-219-219z" horiz-adv-x="1000" />
<glyph glyph-name="cd_write" unicode="&#xe877;" d="m875 194l-156-156l-94 93l156 157z m-281-94l94-94l-94 0z m406 250c0 276-224 500-500 500c-276 0-500-224-500-500c0-276 224-500 500-500c43 0 85 6 125 16c29-10 61-16 94-16c155 0 281 126 281 281c0 33-6 65-16 94c10 40 16 82 16 125z m-500-438c-242 1-437 196-437 438c0 242 195 437 437 438c242-1 437-196 438-438c-1-13-1-26-3-39c-51 62-129 102-216 102c-14 0-28-2-41-4c-25 75-95 129-178 129c-104 0-187-84-187-188c0-83 53-153 128-177c-2-14-3-28-3-42c0-87 39-165 101-216c-13-2-26-2-39-3z m61 452c-7 28-31 49-61 49c-34 0-62-28-62-63c0-30 20-54 48-61c-12-17-21-36-29-55c-48 17-82 62-82 116c0 69 56 125 125 125c54 0 99-34 116-82c-19-8-38-17-55-29z m158-452c-121 1-219 99-219 219c0 121 98 219 219 219c121 0 218-98 219-219c-1-120-98-218-219-219z" horiz-adv-x="1000" />
<glyph glyph-name="chat" unicode="&#xe878;" d="m375 725v-125h-375v-625h75l126 125h424v125h175l125-125h75v625h-625z m188-562h-388l-112-112v487h500v-375z m375 13l-113 112h-200v312h-187v63h500v-487z" horiz-adv-x="1000" />
<glyph glyph-name="chat_pause" unicode="&#xe879;" d="m625 225l63 0l0-187l-63 0z m125 0l63 0l0-187l-63 0z m-375 500v-125h-375v-625h75l126 125h238c16-141 135-250 280-250c155 0 281 126 281 281v594h-625z m-200-562l-112-112v487h500v-173c-68-45-114-118-124-202h-264z m544-247c-119 0-215 97-215 215c0 119 96 215 215 215c119 0 215-96 215-215c0-118-96-215-215-215z m0 497c-33 0-65-6-94-17v204h-187c0 0 0 63 0 63h500v-355c-52 64-131 105-219 105z" horiz-adv-x="1000" />
<glyph glyph-name="chat_run" unicode="&#xe87a;" d="m813 131l-125 125l0-250z m-438 594v-125h-375v-625h75l126 125h238c16-141 135-250 280-250c155 0 281 126 281 281v594h-625z m-200-562l-112-112v487h500v-173c-68-45-114-118-124-202h-264z m544-247c-119 0-215 97-215 215c0 119 96 215 215 215c119 0 215-96 215-215c0-118-96-215-215-215z m0 497c-33 0-65-6-94-17v204h-187v63h500v-355c-52 64-131 105-219 105z" horiz-adv-x="1000" />
<glyph glyph-name="chat_security" unicode="&#xe87b;" d="m817 163c0 4 0 8 0 12c0 22-2 47-17 71c-14 24-45 42-81 42c-37 0-67-18-82-42c-14-24-17-49-17-71c0-4 0-8 0-12h-26v-157h250v157h-27z m-135 12c0 15 3 30 8 38c6 7 9 11 29 12c20-1 23-5 28-12c5-8 8-23 8-38c0-4 0-8-1-12h-71c0 4-1 8-1 12z m-307 550v-125h-375v-625h75l126 125h238c16-141 135-250 280-250c155 0 281 126 281 281v594h-625z m-200-562l-112-112v487h500v-173c-68-45-114-118-124-202h-264z m544-247c-119 0-215 97-215 215c0 119 96 215 215 215c119 0 215-96 215-215c0-118-96-215-215-215z m0 497c-33 0-65-6-94-17v204h-187c0 0 0 63 0 63h500v-355c-52 64-131 105-219 105z" horiz-adv-x="1000" />
<glyph glyph-name="chat_settings" unicode="&#xe87c;" d="m875 100v63h-52c-2 6-4 12-8 19l38 37l-45 44l-36-37c-7 4-14 7-22 10v52h-62v-52c-8-3-14-5-21-9l-35 36l-45-44l36-36c-4-7-6-13-9-20h-51v-63h51c3-8 6-15 10-22l-37-36l44-44l38 37c6-3 12-6 18-8v-52h63v52c7 2 14 5 20 9l38-38l44 44l-37 38c3 6 6 13 8 20h52z m-156-16c-26 1-47 21-47 47c0 26 21 47 47 47c26 0 47-21 47-47c0-26-21-46-47-47z m-344 641v-125h-375v-625h75l126 125h238c16-141 135-250 280-250c155 0 281 126 281 281v594h-625z m-200-562l-112-112v487h500v-173c-68-45-114-118-124-202h-264z m544-247c-119 0-215 97-215 215c0 119 96 215 215 215c119 0 215-96 215-215c0-118-96-215-215-215z m0 497c-33 0-65-6-94-17v204h-187c0 0 0 63 0 63h500v-355c-52 64-131 105-219 105z" horiz-adv-x="1000" />
<glyph glyph-name="chat_stop" unicode="&#xe87d;" d="m375 725l0-125l-375 0l0-625l75 0l125 125l240 0c15-141 134-250 279-250c155 0 281 126 281 281l0 594l-625 0z m63-62l500 0l0-355c-52 64-131 105-219 105c-33 0-65-7-94-17l0 204l-187 0l0 63z m-375-125l500 0l0-173c-68-45-114-118-123-202l-265 0l-112-113l0 488z m656-192c119 0 214-96 215-215c-1-118-96-214-215-215c-119 1-215 97-215 215c0 119 96 215 215 215z m-94-121l188 0l0-187l-188 0z" horiz-adv-x="1000" />
<glyph glyph-name="clock" unicode="&#xe87e;" d="m438 663l0-375l250 0l0 125l-125 0l0 249z m-438-313c0 276 224 500 500 500l0 0c276 0 500-224 500-500l0 0c0-276-224-500-500-500l0 0c-276 0-500 224-500 500l0 0z m125 0c0-207 168-375 375-375l0 0c207 0 375 168 375 375l0 0c0 207-168 375-375 375l0 0c-207 0-375-168-375-375l0 0z" horiz-adv-x="1000" />
<glyph glyph-name="clock_mini" unicode="&#xe87f;" d="m500 663c-172 0-312-141-312-313c0-172 140-312 312-312c172 0 313 140 313 312c0 172-141 313-313 313z m0-63c138 0 250-112 250-250c0-138-112-250-250-250c-138 0-250 112-250 250c0 138 112 250 250 250z m-31-62l0-219l31 0l31 0l94 0l0 62l-94 0l0 157l-62 0z" horiz-adv-x="1000" />
<glyph glyph-name="cloud" unicode="&#xe880;" d="m813 475c-27 0-52-5-74-15c-34 117-142 203-270 203c-146 0-266-112-280-254c-11 2-21 4-33 4c-86 0-156-70-156-157c0-86 70-156 156-156h657c103 0 187 84 187 188c0 103-84 187-187 187z" horiz-adv-x="1000" />
<glyph glyph-name="codec_image" unicode="&#xe881;" d="m563-25l312 0l0 63l-750 0l0-63l313 0l0-125l125 0z m-438 750l0-62l750 0l0 62l-312 0l0 125l-125 0l0-125z m813-187h-188l-125 62h-250l-125-62h-187c0 0-63 0-63-63c0-44 0-250 0-312c0-63 63-63 63-63c0 0 790 0 875 0c0 0 62-3 62 63c0 0 0 229 0 312c0 59-62 63-62 63z m-438-344c-104 0-187 56-187 125c0 69 83 125 187 125c104 0 188-56 188-125c0-69-84-125-188-125z" horiz-adv-x="1000" />
<glyph glyph-name="codec_video" unicode="&#xe882;" d="m563 850l125 0l0-125l-125 0z m0-875l125 0l0-125l-125 0z m-313 63l750 0l0-63l-750 0z m0 687l750 0l0-62l-750 0z m0-625l0 125l-250-187l0 625l250-188l0 125l750 0l0-500z" horiz-adv-x="1000" />
<glyph glyph-name="combine" unicode="&#xe883;" d="m1000 350c0 173-140 312-312 313c-71 0-136-24-188-63c-52 39-117 63-187 63c-173 0-313-140-313-313c0-172 140-312 313-312c70 0 135 23 187 63c52-40 117-63 188-63c172 0 312 139 312 312h0z m-937 0c0 138 111 250 250 250c52 0 100-16 140-44c-48-55-78-127-78-206c0-79 30-151 78-206c-40-28-88-44-140-44c-139 0-250 112-250 250z m875 0c-1-138-112-250-250-250c-53 0-101 16-141 44c48 55 78 127 78 206c0 79-30 151-78 206c40 28 88 44 141 44c137 0 249-112 250-250h0z" horiz-adv-x="1000" />
<glyph glyph-name="comment" unicode="&#xe884;" d="m250 350l375 0l0-62l-375 0z m0 125l563 0l0-62l-563 0z m0 125l563 0l0-62l-563 0z m688 188v-688h-612l-188-188h-75l0 0l0 876m237-625h575v562h-750v-737l175 175z" horiz-adv-x="1000" />
<glyph glyph-name="comment_accept" unicode="&#xe885;" d="m688 131l125 125l62-62l-187-188l-125 125l62 63z m125 469h-563v-62h563v62z m0-125h-563v-62h469h94v62z m125-167v480h-875l0-876h75l188 188h113c16-141 135-250 280-250c155 0 281 126 281 281c0 67-23 129-62 177z m-499-145h-139l-175-175v737h750v-360c-45 30-98 48-156 48c-67 0-129-24-177-63h-292v-62h235c-25-37-41-80-46-125z m280-247c-119 0-215 97-215 215c0 119 96 215 215 215c119 0 215-96 215-215c0-118-96-215-215-215z" horiz-adv-x="1000" />
<glyph glyph-name="comment_add" unicode="&#xe886;" d="m688 163l-125 0l0-63l125 0l0-125l62 0l0 125l125 0l0 63l-125 0l0 125l-62 0z m125 437h-563v-62h563v62z m0-125h-563v-62h469h94v62z m125-167v480h-875l0-876h75l188 188h113c16-141 135-250 280-250c155 0 281 126 281 281c0 67-23 129-62 177z m-499-145h-139l-175-175v737h750v-360c-45 30-98 48-156 48c-67 0-129-24-177-63h-292v-62h235c-24-37-41-80-46-125z m280-247c-119 0-215 97-215 215c0 119 96 215 215 215c119 0 215-96 215-215c0-118-96-215-215-215z" horiz-adv-x="1000" />
<glyph glyph-name="comment_cancel" unicode="&#xe887;" d="m719 69l62-63l63 63l-63 62l63 63l-63 62l-62-62l-63 62l-62-62l62-63l-62-62l62-63z m94 531h-563v-62h563v62z m0-125h-563v-62h469h94v62z m125-167v480h-875l0-876h75l188 188h113c16-141 135-250 280-250c155 0 281 126 281 281c0 67-23 129-62 177z m-499-145h-139l-175-175v737h750v-360c-45 30-98 48-156 48c-67 0-129-24-177-63h-292v-62h235c-25-37-41-80-46-125z m280-247c-119 0-215 97-215 215c0 119 96 215 215 215c119 0 215-96 215-215c0-118-96-215-215-215z" horiz-adv-x="1000" />
<glyph glyph-name="comment_edit" unicode="&#xe888;" d="m875 194l-156-156l-94 93l156 157z m-281-94l94-94l-94 0z m219 500l-563 0l0-62l563 0l0 62z m0-125l-563 0l0-62l469 0l94 0l0 62z m125-167l0 480l-875 0l0-876l75 0l188 188l113 0c16-141 135-250 280-250c155 0 281 126 281 281c0 67-23 129-62 177z m-499-145l-139 0l-175-175l0 737l750 0l0-360c-45 30-98 48-156 48c-67 0-129-24-177-63l-292 0l0-62l235 0c-25-37-41-80-46-125z m280-247c-119 0-215 97-215 215c0 119 96 215 215 215c119 0 215-96 215-215c0-118-96-215-215-215z" horiz-adv-x="1000" />
<glyph glyph-name="comment_remove" unicode="&#xe889;" d="m563 163l312 0l0-63l-312 0z m250 437h-563v-62h563v62z m0-125h-563v-62h469h94v62z m125-167v480h-875l0-876h75l188 188h113c16-141 135-250 280-250c155 0 281 126 281 281c0 67-23 129-62 177z m-499-145h-139l-175-175v737h750v-360c-45 30-98 48-156 48c-67 0-129-24-177-63h-292v-62h235c-24-37-41-80-46-125z m280-247c-119 0-215 97-215 215c0 119 96 215 215 215c119 0 215-96 215-215c0-118-96-215-215-215z" horiz-adv-x="1000" />
<glyph glyph-name="comment_settings" unicode="&#xe88a;" d="m875 100v63h-52c-2 6-4 12-8 19l38 37l-45 44l-36-37c-7 4-14 7-22 10v52h-62v-52c-8-3-14-5-21-9l-35 36l-45-44l36-36c-4-7-6-13-9-20h-51v-63h51c3-8 6-15 10-22l-37-36l44-44l38 37c6-3 12-6 18-8v-52h63v52c7 2 14 5 20 9l38-38l44 44l-37 38c3 6 6 13 8 20h52z m-156-16c-26 1-47 21-47 47c0 26 21 47 47 47c26 0 47-21 47-47c0-26-21-46-47-47z m94 516h-563v-62h563v62z m0-125h-563v-62h469h94v62z m125-167v480h-875l0-876h75l188 188h113c16-141 135-250 280-250c155 0 281 126 281 281c0 67-23 129-62 177z m-499-145h-139l-175-175v737h750v-360c-45 30-98 48-156 48c-67 0-129-24-177-63h-292v-62h235c-24-37-41-80-46-125z m280-247c-119 0-215 97-215 215c0 119 96 215 215 215c119 0 215-96 215-215c0-118-96-215-215-215z" horiz-adv-x="1000" />
<glyph glyph-name="computer" unicode="&#xe88b;" d="m125 788v-563h750v563h-750z m688-500h-625v437h625v-437z m62-125l125-251l-1000 0l125 251z" horiz-adv-x="1000" />
<glyph glyph-name="computer_accept" unicode="&#xe88c;" d="m688 131l125 125l62-62l-187-188l-125 125l62 63z m273-141c25 41 39 90 39 141c0 98-50 184-125 234v423h-750v-563h329c-7-20-12-41-15-62h-314l-125-251h542c48-39 110-62 177-62c67 0 128 23 176 62h105l-39 78z m-773 298v437h625v-329c-30 11-61 17-94 17c-98 0-184-50-234-125h-297z m316-157c0 119 96 215 215 215c119 0 215-96 215-215c0-118-96-215-215-215c-119 0-215 97-215 215z" horiz-adv-x="1000" />
<glyph glyph-name="computer_add" unicode="&#xe88d;" d="m750 288l-62 0l0-125l-125 0l0-63l125 0l0-125l62 0l0 125l125 0l0 63l-125 0z m211-298c25 41 39 90 39 141c0 98-50 184-125 234v423h-750v-563h329c-7-20-12-41-15-62h-314l-125-251h542c48-39 110-62 177-62c67 0 128 23 176 62h105l-39 78z m-773 298v437h625v-329c-30 11-61 17-94 17c-98 0-184-50-234-125h-297z m316-157c0 119 96 215 215 215c119 0 215-96 215-215c0-118-96-215-215-215c-119 0-215 97-215 215z" horiz-adv-x="1000" />
<glyph glyph-name="computer_cancel" unicode="&#xe88e;" d="m719 69l62-63l63 63l-63 62l63 63l-63 62l-62-62l-63 62l-62-62l62-63l-62-62l62-63z m242-79c25 41 39 90 39 141c0 98-50 184-125 234v423h-750v-563h329c-7-20-12-41-15-62h-314l-125-251h542c48-39 110-62 177-62c67 0 128 23 176 62h105l-39 78z m-773 298v437h625v-329c-30 11-61 17-94 17c-98 0-184-50-234-125h-297z m316-157c0 119 96 215 215 215c119 0 215-96 215-215c0-118-96-215-215-215c-119 0-215 97-215 215z" horiz-adv-x="1000" />
<glyph glyph-name="computer_remove" unicode="&#xe88f;" d="m563 163l312 0l0-63l-312 0z m398-173c25 41 39 90 39 141c0 98-50 184-125 234v423h-750v-563h329c-7-20-12-41-15-62h-314l-125-251h542c48-39 110-62 177-62c67 0 128 23 176 62h105l-39 78z m-773 298v437h625v-329c-30 11-61 17-94 17c-98 0-184-50-234-125h-297z m316-157c0 119 96 215 215 215c119 0 215-96 215-215c0-118-96-215-215-215c-119 0-215 97-215 215z" horiz-adv-x="1000" />
<glyph glyph-name="computer_settings" unicode="&#xe890;" d="m875 100v63h-52c-2 6-4 12-8 19l38 37l-45 44l-36-37c-7 4-14 7-22 10v52h-62v-52c-8-3-14-5-21-9l-35 36l-45-44l36-36c-4-7-6-13-9-20h-51v-63h51c3-8 6-15 10-22l-37-36l44-44l38 37c6-3 12-6 18-8v-52h63v52c7 2 14 5 20 9l38-38l44 44l-37 38c3 6 6 13 8 20h52z m-156-16c-26 1-47 21-47 47c0 26 21 47 47 47c26 0 47-21 47-47c0-26-21-46-47-47z m242-94c25 41 39 90 39 141c0 98-50 184-125 234v423h-750v-563h329c-7-20-12-41-15-62h-314l-125-251h542c48-39 110-62 177-62c67 0 128 23 176 62h105l-39 78z m-773 298v437h625v-329c-30 11-61 17-94 17c-98 0-184-50-234-125h-297z m316-157c0 119 96 215 215 215c119 0 215-96 215-215c0-118-96-215-215-215c-119 0-215 97-215 215z" horiz-adv-x="1000" />
<glyph glyph-name="controls_chapter_next" unicode="&#xe891;" d="m0-25l375 375l-375 375v-750z m438 0l375 375l-375 375v-750z m437 750v-750h125v750h-125z" horiz-adv-x="1000" />
<glyph glyph-name="controls_chapter_previous" unicode="&#xe892;" d="m625 350l375-375v750l-375-375z m-62-375v750l-375-375l375-375z m-563 0h125v750h-125v-750z" horiz-adv-x="1000" />
<glyph glyph-name="controls_eject" unicode="&#xe893;" d="m63 163l875 0l0-251l-875 0z m437 562l-437-437l875 0z" horiz-adv-x="1000" />
<glyph glyph-name="controls_fast_forward" unicode="&#xe894;" d="m0-25l375 375l-375 375v-750z m438 750v-750l375 375l-375 375z" horiz-adv-x="1000" />
<glyph glyph-name="controls_pause" unicode="&#xe895;" d="m125 725l250 0l0-750l-250 0z m500 0l250 0l0-750l-250 0z" horiz-adv-x="1000" />
<glyph glyph-name="controls_play" unicode="&#xe896;" d="m313-25l0 750l375-375z" horiz-adv-x="1000" />
<glyph glyph-name="controls_play_back" unicode="&#xe897;" d="m688-25l0 750l-375-375z" horiz-adv-x="1000" />
<glyph glyph-name="controls_rewind" unicode="&#xe898;" d="m625 350l375-375v750l-375-375z m-62-375v750l-375-375l375-375z" horiz-adv-x="1000" />
<glyph glyph-name="controls_stop" unicode="&#xe899;" d="m125 725l750 0l0-750l-750 0z" horiz-adv-x="1000" />
<glyph glyph-name="cooler" unicode="&#xe89a;" d="m750 225c188 0 250 63 250 63c0 125-62 187-62 187c-86-57-185-88-268-105c31 15 63 36 95 68c133 133 133 221 133 221c-89 89-177 89-177 89c-20-102-68-193-115-263c12 31 19 69 19 115c0 188-62 250-62 250c-125 0-188-62-188-62c57-86 88-185 105-268c-14 31-36 63-68 95c-133 133-221 133-221 133c-89-89-89-177-89-177c102-20 193-68 263-115c-31 12-69 19-115 19c-187 0-250-62-250-62c0-125 63-188 63-188c86 57 185 88 267 105c-31-14-63-36-95-68c-133-133-133-221-133-221c89-89 177-89 177-89c20 102 68 193 115 263c-11-31-19-69-19-115c0-188 63-250 63-250c125 0 187 62 187 62c-57 86-88 185-105 268c15-31 36-63 68-95c133-133 221-133 221-133c89 89 89 177 89 177c-102 20-193 68-263 115c31-11 69-19 115-19z m-250 125l0 0l0 0l0 0l0 0z m0 0l0 0l0 0l0 0l0 0z m0 0l0 0l0 0l0 0l0 0z m0 0l0 0l0 0l0 0l0 0z" horiz-adv-x="1000" />
<glyph glyph-name="copy" unicode="&#xe89b;" d="m563 225l0 250l125-125z m-563 375v-500h500v500h-500z m438-437h-375v375h375v-375z m312 312l250 0l0-250l-250 0z m-625 0l250 0l0-250l-250 0z" horiz-adv-x="1000" />
<glyph glyph-name="credit_card" unicode="&#xe89c;" d="m985 600c-15 30-52 64-110 63h-750c-58 1-96-33-110-65c-15-31-15-58-15-60v-375c0-3 0-30 15-61c14-31 51-64 107-64c1 0 2 0 3 0h750c3 0 30-1 61 15c31 14 65 52 64 110v376c0 3 0 30-15 61z m-921-53c1 10 6 25 14 35c9 9 20 18 47 18h750c36-1 45-14 54-29c4-8 6-16 7-22c2-7 1-9 1-10v-1h-874c0 0-1 3 1 9z m844-438c-8-4-17-7-23-8c-7-1-10-1-10-1h-750c-36 1-45 14-54 30c-4 8-6 16-7 23c-2 7-1 10-1 10v250h875v-250c-2-36-14-45-30-54z" horiz-adv-x="1000" />
<glyph glyph-name="crown" unicode="&#xe89d;" d="m1000 663l-281-282l-219 282l-219-282l-281 282l63-625l875 0z" horiz-adv-x="1000" />
<glyph glyph-name="cut" unicode="&#xe89e;" d="m563 225l0 250l125-125z m-563 375v-500h500v500h-500z m438-437h-375v375h375v-375z m312 312l250 0l0-250l-250 0z" horiz-adv-x="1000" />
<glyph glyph-name="database" unicode="&#xe89f;" d="m937 694c1 8-6 53-65 89c-59 36-166 67-372 67c-206 0-313-31-372-67c-59-36-66-81-65-89l0 0v-711c-1-11 9-51 68-79c58-29 163-54 369-54c206 0 311 25 369 54c59 28 70 68 68 79v711l0 0z m-69-716c-20-20-105-66-368-66c-200 0-298 26-341 48c-22 11-31 20-34 24c-1 1 0 2 0 2l0 621c1-1 2-2 3-2c59-36 166-67 372-67c206 0 313 31 372 67c1 0 2 1 3 2v-621c-1-1-2-4-7-8z" horiz-adv-x="1000" />
<glyph glyph-name="database_add" unicode="&#xe8a0;" d="m688 163l-125 0l0-63l125 0l0-125l62 0l0 125l125 0l0 63l-125 0l0 125l-62 0z m249 145v386c1 8-6 53-65 89c-59 36-166 67-372 67c-206 0-313-31-372-67c-59-36-66-81-65-89v-711c-1-11 9-51 68-79c58-29 163-54 369-54c62 0 114 2 160 6c19-4 38-6 59-6c155 0 281 126 281 281c0 67-23 129-63 177z m-437-396c-200 0-298 26-341 48c-22 11-31 20-34 24c0 1 0 2 0 2l0 621c1-1 2-2 3-2c59-36 166-67 372-67c206 0 313 31 372 67c1 0 2 1 3 2v-242c-45 30-98 48-156 48c-156-1-281-126-281-282c0-88 40-167 104-218c-14 0-27-1-42-1z m219 1c-121 0-219 98-219 218c0 121 98 219 219 219c121 0 218-98 218-219c0-120-97-218-218-218z" horiz-adv-x="1000" />
<glyph glyph-name="database_edit" unicode="&#xe8a1;" d="m875 194l-156-156l-94 93l156 157z m-281-94l94-94l-94 0z m343 208l0 386c1 8-6 53-65 89c-59 36-166 67-372 67c-206 0-313-31-372-67c-59-36-66-81-65-89l0-711c-1-11 9-51 68-79c58-29 163-54 369-54c62 0 114 2 160 6c19-4 38-6 59-6c155 0 281 126 281 281c0 67-23 129-63 177z m-437-396c-200 0-298 26-341 48c-22 11-31 20-34 24c0 1 0 2 0 2l0 621c1-1 2-2 3-2c59-36 166-67 372-67c206 0 313 31 372 67c1 0 2 1 3 2l0-242c-45 30-98 48-156 48c-156-1-281-126-281-282c0-88 40-167 104-218c-14 0-27-1-42-1z m219 1c-121 0-219 98-219 218c0 121 98 219 219 219c121 0 218-98 218-219c0-120-97-218-218-218z" horiz-adv-x="1000" />
<glyph glyph-name="database_information" unicode="&#xe8a2;" d="m688-25h62v188h-62v-188z m0 313v-63h62v63h-62z m249 20v386c1 8-6 53-65 89c-59 36-166 67-372 67c-206 0-313-31-372-67c-59-36-66-81-65-89v-711c-1-11 9-51 68-79c58-29 163-54 369-54c62 0 114 2 160 6c19-4 38-6 59-6c155 0 281 126 281 281c0 67-23 129-63 177z m-437-396c-200 0-298 26-341 48c-22 11-31 20-34 24c0 1 0 2 0 2l0 621c1-1 2-2 3-2c59-36 166-67 372-67c206 0 313 31 372 67c1 0 2 1 3 2v-242c-45 30-98 48-156 48c-156-1-281-126-281-282c0-88 40-167 104-218c-14 0-27-1-42-1z m219 1c-121 0-219 98-219 218c0 121 98 219 219 219c121 0 218-98 218-219c0-120-97-218-218-218z" horiz-adv-x="1000" />
<glyph glyph-name="database_remove" unicode="&#xe8a3;" d="m563 163l312 0l0-63l-312 0z m374 145v386c1 8-6 53-65 89c-59 36-166 67-372 67c-206 0-313-31-372-67c-59-36-66-81-65-89v-711c-1-11 9-51 68-79c58-29 163-54 369-54c62 0 114 2 160 6c19-4 38-6 59-6c155 0 281 126 281 281c0 67-23 129-63 177z m-437-396c-200 0-298 26-341 48c-22 11-31 20-34 24c0 1 0 2 0 2l0 621c1-1 2-2 3-2c59-36 166-67 372-67c206 0 313 31 372 67c1 0 2 1 3 2v-242c-45 30-98 48-156 48c-156-1-281-126-281-282c0-88 40-167 104-218c-14 0-27-1-42-1z m219 1c-121 0-219 98-219 218c0 121 98 219 219 219c121 0 218-98 218-219c0-120-97-218-218-218z" horiz-adv-x="1000" />
<glyph glyph-name="database_run" unicode="&#xe8a4;" d="m813 131l-125 125l0-250z m124 177v386c1 8-6 53-65 89c-59 36-166 67-372 67c-206 0-313-31-372-67c-59-36-66-81-65-89v-711c-1-11 9-51 68-79c58-29 163-54 369-54c62 0 114 2 160 6c19-4 38-6 59-6c155 0 281 126 281 281c0 67-23 129-63 177z m-437-396c-200 0-298 26-341 48c-22 11-31 20-34 24c0 1 0 2 0 2l0 621c1-1 2-2 3-2c59-36 166-67 372-67c206 0 313 31 372 67c1 0 2 1 3 2v-242c-45 30-98 48-156 48c-156-1-281-126-281-282c0-88 40-167 104-218c-14 0-27-1-42-1z m219 1c-121 0-219 98-219 218c0 121 98 219 219 219c121 0 218-98 218-219c0-120-97-218-218-218z" horiz-adv-x="1000" />
<glyph glyph-name="database_security" unicode="&#xe8a5;" d="m817 163c0 4 0 8 0 12c0 22-2 47-17 71c-14 24-45 42-81 42c-37 0-67-18-82-42c-14-24-17-49-17-71c0-4 0-8 0-12h-26v-157h250v157h-27z m-135 12c0 15 3 30 8 38c6 7 9 11 29 12c20-1 23-5 28-12c5-8 8-23 8-38c0-4 0-8-1-12h-71c0 4-1 8-1 12z m255 133v386c1 8-6 53-65 89c-59 36-166 67-372 67c-206 0-313-31-372-67c-59-36-66-81-65-89v-711c-1-11 9-51 68-79c58-29 163-54 369-54c62 0 114 2 160 6c19-4 38-6 59-6c155 0 281 126 281 281c0 67-23 129-63 177z m-437-396c-200 0-298 26-341 48c-22 11-31 20-34 24c0 1 0 2 0 2l0 621c1-1 2-2 3-2c59-36 166-67 372-67c206 0 313 31 372 67c1 0 2 1 3 2v-242c-45 30-98 48-156 48c-156-1-281-126-281-282c0-88 40-167 104-218c-14 0-27-1-42-1z m219 1c-121 0-219 98-219 218c0 121 98 219 219 219c121 0 218-98 218-219c0-120-97-218-218-218z" horiz-adv-x="1000" />
<glyph glyph-name="data_privacy" unicode="&#xe8a6;" d="m817 163c0 4 0 8 0 12c0 22-2 47-17 71c-14 24-45 42-81 42c-37 0-67-18-82-42c-14-24-17-49-17-71c0-4 0-8 0-12h-26v-157h250v157h-27z m-135 12c0 15 3 30 8 38c6 7 9 11 29 12c20-1 23-5 28-12c5-8 8-23 8-38c0-4 0-8-1-12h-71c0 4-1 8-1 12z m-307 113c69 0 125 56 125 125c0 69-56 125-125 125c-69 0-125-56-125-125c0-69 56-125 125-125z m375 123v265l-175 174h-575v-1000h750v2c141 15 250 134 250 279c0 145-109 264-250 280z m-188 364l113-112h-113v112z m-499-863v876h437v-188h188v-189c-109-12-199-86-234-186c-111 0-266 0-266 0c0 0-63 0-63-62c0-32 0-188 0-188h360c16-24 35-45 57-63h-479z m656 0c-121 1-219 99-219 219c0 121 98 219 219 219c121 0 218-98 219-219c-1-120-98-218-219-219z" horiz-adv-x="1000" />
<glyph glyph-name="document_image" unicode="&#xe8a7;" d="m575 850h-575v-1000h750v826l-175 174z m-13-75l113-112h-113v112z m126-863h-625v876h437v-188h188v-688z m-250 563h-125l-63-62h-62c0 0-63 0-63-63v-187c0-63 63-63 63-63c0 0 332 0 375 0c62 0 62 63 62 63c0 0 0 125 0 187c0 63-62 63-62 63l-63 0l-62 62z m-63-312c-52 0-94 41-94 93c0 52 42 94 94 94c52 0 94-42 94-94c0-52-42-93-94-93z" horiz-adv-x="1000" />
<glyph glyph-name="document_image_accept" unicode="&#xe8a8;" d="m688 131l125 125l62-62l-187-188l-125 125l62 63z m312 0c0 145-109 264-250 280v265l-175 174h-575v-1000h750v2c141 15 250 134 250 279z m-438 644l113-112h-113v112z m-499-863v876h437v-188h188v-189c-27-3-53-10-77-20c-19 21-48 22-48 22l-63 0l-62 62h-125l-63-62h-62c0 0-63 0-63-63v-187c0-63 63-63 63-63c0 0 141 0 251 0c9-76 47-142 103-188h-479z m312 251c-52 0-94 41-94 93c0 52 42 94 94 94c51 0 92-40 94-91c-11-20-19-42-24-65c-17-19-42-31-70-31z m344-251c-121 1-219 99-219 219c0 121 98 219 219 219c121 0 218-98 219-219c-1-120-98-218-219-219z" horiz-adv-x="1000" />
<glyph glyph-name="document_image_add" unicode="&#xe8a9;" d="m688 163l-125 0l0-63l125 0l0-125l62 0l0 125l125 0l0 63l-125 0l0 125l-62 0z m312-32c0 145-109 264-250 280v265l-175 174h-575v-1000h750v2c141 15 250 134 250 279z m-438 644l113-112h-113v112z m-499-863v876h437v-188h188v-189c-27-3-53-10-77-20c-19 21-48 22-48 22l-63 0l-62 62h-125l-63-62h-62c0 0-63 0-63-63v-187c0-63 63-63 63-63c0 0 141 0 251 0c9-76 47-142 103-188h-479z m312 251c-52 0-94 41-94 93c0 52 42 94 94 94c51 0 92-40 94-91c-11-20-19-42-24-65c-17-19-42-31-70-31z m344-251c-121 1-219 99-219 219c0 121 98 219 219 219c121 0 218-98 219-219c-1-120-98-218-219-219z" horiz-adv-x="1000" />
<glyph glyph-name="document_image_cancel" unicode="&#xe8aa;" d="m719 69l62-63l63 63l-63 62l63 63l-63 62l-62-62l-63 62l-62-62l62-63l-62-62l62-63z m281 62c0 145-109 264-250 280v265l-175 174h-575v-1000h750v2c141 15 250 134 250 279z m-438 644l113-112h-113v112z m-499-863v876h437v-188h188v-189c-27-3-53-10-77-20c-19 21-48 22-48 22l-63 0l-62 62h-125l-63-62h-62c0 0-63 0-63-63v-187c0-63 63-63 63-63c0 0 141 0 251 0c9-76 47-142 103-188h-479z m312 251c-52 0-94 41-94 93c0 52 42 94 94 94c51 0 92-40 94-91c-11-20-19-42-24-65c-17-19-42-31-70-31z m344-251c-121 1-219 99-219 219c0 121 98 219 219 219c121 0 218-98 219-219c-1-120-98-218-219-219z" horiz-adv-x="1000" />
<glyph glyph-name="document_image_down" unicode="&#xe8ab;" d="m719 38l125 125l-250 0z m281 93c0 145-109 264-250 280v265l-175 174h-575v-1000h750v2c141 15 250 134 250 279z m-438 644l113-112h-113v112z m-499-863v876h437v-188h188v-189c-27-3-53-10-77-20c-19 21-48 22-48 22l-63 0l-62 62h-125l-63-62h-62c0 0-63 0-63-63v-187c0-63 63-63 63-63c0 0 141 0 251 0c9-76 47-142 103-188h-479z m312 251c-52 0-94 41-94 93c0 52 42 94 94 94c51 0 92-40 94-91c-11-20-19-42-24-65c-17-19-42-31-70-31z m344-251c-121 1-219 99-219 219c0 121 98 219 219 219c121 0 218-98 219-219c-1-120-98-218-219-219z" horiz-adv-x="1000" />
<glyph glyph-name="document_image_edit" unicode="&#xe8ac;" d="m875 194l-156-156l-94 93l156 157z m-281-188l0 94l94-94z m406 125c0 145-109 264-250 280l0 265l-175 174l-575 0l0-1000l750 0l0 2c141 15 250 134 250 279z m-438 644l113-112l-113 0l0 112z m-499-863l0 876l437 0l0-188l188 0l0-189c-27-3-53-10-77-20c-19 21-48 22-48 22l-63 0l-62 62l-125 0l-63-62l-62 0c0 0-63 0-63-63l0-187c0-63 63-63 63-63c0 0 141 0 251 0c9-76 47-142 103-188l-479 0z m312 251c-52 0-94 41-94 93c0 52 42 94 94 94c51 0 92-40 94-91c-11-20-19-42-24-65c-17-19-42-31-70-31z m344-251c-121 1-219 99-219 219c0 121 98 219 219 219c121 0 218-98 219-219c-1-120-98-218-219-219z" horiz-adv-x="1000" />
<glyph glyph-name="document_image_information" unicode="&#xe8ad;" d="m688-25h62v188h-62v-188z m0 313v-63h62v63h-62z m312-157c0 145-109 264-250 280v265l-175 174h-575v-1000h750v2c141 15 250 134 250 279z m-438 644l113-112h-113v112z m-499-863v876h437v-188h188v-189c-27-3-53-10-77-20c-19 21-48 22-48 22l-63 0l-62 62h-125l-63-62h-62c0 0-63 0-63-63v-187c0-63 63-63 63-63c0 0 141 0 251 0c9-76 47-142 103-188h-479z m312 251c-52 0-94 41-94 93c0 52 42 94 94 94c51 0 92-40 94-91c-11-20-19-42-24-65c-17-19-42-31-70-31z m344-251c-121 1-219 99-219 219c0 121 98 219 219 219c121 0 218-98 219-219c-1-120-98-218-219-219z" horiz-adv-x="1000" />
<glyph glyph-name="document_image_remove" unicode="&#xe8ae;" d="m563 163l312 0l0-63l-312 0z m437-32c0 145-109 264-250 280v265l-175 174h-575v-1000h750v2c141 15 250 134 250 279z m-438 644l113-112h-113v112z m-499-863v876h437v-188h188v-189c-27-3-53-10-77-20c-19 21-48 22-48 22l-63 0l-62 62h-125l-63-62h-62c0 0-63 0-63-63v-187c0-63 63-63 63-63c0 0 141 0 251 0c9-76 47-142 103-188h-479z m312 251c-52 0-94 41-94 93c0 52 42 94 94 94c51 0 92-40 94-91c-11-20-19-42-24-65c-17-19-42-31-70-31z m344-251c-121 1-219 99-219 219c0 121 98 219 219 219c121 0 218-98 219-219c-1-120-98-218-219-219z" horiz-adv-x="1000" />
<glyph glyph-name="document_image_run" unicode="&#xe8af;" d="m813 131l-125 125l0-250z m187 0c0 145-109 264-250 280v265l-175 174h-575v-1000h750v2c141 15 250 134 250 279z m-438 644l113-112h-113v112z m-499-863v876h437v-188h188v-189c-27-3-53-10-77-20c-19 21-48 22-48 22l-63 0l-62 62h-125l-63-62h-62c0 0-63 0-63-63v-187c0-63 63-63 63-63c0 0 141 0 251 0c9-76 47-142 103-188h-479z m312 251c-52 0-94 41-94 93c0 52 42 94 94 94c51 0 92-40 94-91c-11-20-19-42-24-65c-17-19-42-31-70-31z m344-251c-121 1-219 99-219 219c0 121 98 219 219 219c121 0 218-98 219-219c-1-120-98-218-219-219z" horiz-adv-x="1000" />
<glyph glyph-name="document_image_security" unicode="&#xe8b0;" d="m817 163c0 4 0 8 0 12c0 22-2 47-17 71c-14 24-45 42-81 42c-37 0-67-18-82-42c-14-24-17-49-17-71c0-4 0-8 0-12h-26v-157h250v157h-27z m-135 12c0 15 3 30 8 38c6 7 9 11 29 12c20-1 23-5 28-12c5-8 8-23 8-38c0-4 0-8-1-12h-71c0 4-1 8-1 12z m318-44c0 145-109 264-250 280v265l-175 174h-575v-1000h750v2c141 15 250 134 250 279z m-438 644l113-112h-113v112z m-499-863v876h437v-188h188v-189c-27-3-53-10-77-20c-19 21-48 22-48 22l-63 0l-62 62h-125l-63-62h-62c0 0-63 0-63-63v-187c0-63 63-63 63-63c0 0 141 0 251 0c9-76 47-142 103-188h-479z m312 251c-52 0-94 41-94 93c0 52 42 94 94 94c51 0 92-40 94-91c-11-20-19-42-24-65c-17-19-42-31-70-31z m344-251c-121 1-219 99-219 219c0 121 98 219 219 219c121 0 218-98 219-219c-1-120-98-218-219-219z" horiz-adv-x="1000" />
<glyph glyph-name="document_image_settings" unicode="&#xe8b1;" d="m875 100v63h-52c-2 6-4 12-8 19l38 37l-45 44l-36-37c-7 4-14 7-22 10v52h-62v-52c-8-3-14-5-21-9l-35 36l-45-44l36-36c-4-7-6-13-9-20h-51v-63h51c3-8 6-15 10-22l-37-36l44-44l38 37c6-3 12-6 18-8v-52h63v52c7 2 14 5 20 9l38-38l44 44l-37 38c3 6 6 13 8 20h52z m-156-16c-26 1-47 21-47 47c0 26 21 47 47 47c26 0 47-21 47-47c0-26-21-46-47-47z m281 47c0 145-109 264-250 280v265l-175 174h-575v-1000h750v2c141 15 250 134 250 279z m-438 644l113-112h-113v112z m-499-863v876h437v-188h188v-189c-27-3-53-10-77-20c-19 21-48 22-48 22l-63 0l-62 62h-125l-63-62h-62c0 0-63 0-63-63v-187c0-63 63-63 63-63c0 0 141 0 251 0c9-76 47-142 103-188h-479z m312 251c-52 0-94 41-94 93c0 52 42 94 94 94c51 0 92-40 94-91c-11-20-19-42-24-65c-17-19-42-31-70-31z m344-251c-121 1-219 99-219 219c0 121 98 219 219 219c121 0 218-98 219-219c-1-120-98-218-219-219z" horiz-adv-x="1000" />
<glyph glyph-name="document_image_up" unicode="&#xe8b2;" d="m719 225l-125-125l250 0z m281-94c0 145-109 264-250 280v265l-175 174h-575v-1000h750v2c141 15 250 134 250 279z m-438 644l113-112h-113v112z m-499-863v876h437v-188h188v-189c-27-3-53-10-77-20c-19 21-48 22-48 22l-63 0l-62 62h-125l-63-62h-62c0 0-63 0-63-63v-187c0-63 63-63 63-63c0 0 141 0 251 0c9-76 47-142 103-188h-479z m312 251c-52 0-94 41-94 93c0 52 42 94 94 94c51 0 92-40 94-91c-11-20-19-42-24-65c-17-19-42-31-70-31z m344-251c-121 1-219 99-219 219c0 121 98 219 219 219c121 0 218-98 219-219c-1-120-98-218-219-219z" horiz-adv-x="1000" />
<glyph glyph-name="document_music" unicode="&#xe8b3;" d="m250 538v-256c-10 4-20 6-31 6c-52 0-94-43-94-94c0-52 42-94 94-94c52 0 94 42 94 94v250l187-31v-193c-10 3-20 5-31 5c-52 0-94-42-94-94c0-51 42-93 94-93c51 0 94 42 94 93v344l-313 63z m325 312h-575v-1000h750v826l-175 174z m-13-75l113-112h-113v112z m-499-863v876h437v-188h188v-688h-625z" horiz-adv-x="1000" />
<glyph glyph-name="document_music_accept" unicode="&#xe8b4;" d="m688 131l125 125l62-62l-187-188l-125 125l62 63z m312 0c0 145-109 264-250 280v265l-175 174h-575v-1000h750v2c141 15 250 134 250 279z m-438 644l113-112h-113v112z m-499-863v876h437v-188h188v-189c-46-5-89-21-125-46v110l-313 63v-256c-10 4-20 6-31 6c-52 0-94-43-94-94c0-52 42-94 94-94c52 0 94 42 94 94v250l187-31v-105c-20-25-36-54-47-85c-44-7-78-45-78-92c0-46 34-84 78-92c18-50 49-94 89-127h-479z m656 4c-119 0-215 97-215 215c0 119 96 215 215 215c119 0 215-96 215-215c0-118-96-215-215-215z" horiz-adv-x="1000" />
<glyph glyph-name="document_music_add" unicode="&#xe8b5;" d="m688 163l-125 0l0-63l125 0l0-125l62 0l0 125l125 0l0 63l-125 0l0 125l-62 0z m312-32c0 145-109 264-250 280v265l-175 174h-575v-1000h750v2c141 15 250 134 250 279z m-438 644l113-112h-113v112z m-499-863v876h437v-188h188v-189c-46-5-89-21-125-46v110l-313 63v-256c-10 4-20 6-31 6c-52 0-94-43-94-94c0-52 42-94 94-94c52 0 94 42 94 94v250l187-31v-105c-20-25-36-54-47-85c-44-7-78-45-78-92c0-46 34-84 78-92c18-50 49-94 89-127h-479z m656 4c-119 0-215 97-215 215c0 119 96 215 215 215c119 0 215-96 215-215c0-118-96-215-215-215z" horiz-adv-x="1000" />
<glyph glyph-name="document_music_cancel" unicode="&#xe8b6;" d="m719 69l62-63l63 63l-63 62l63 63l-63 62l-62-62l-63 62l-62-62l62-63l-62-62l62-63z m281 62c0 145-109 264-250 280v265l-175 174h-575v-1000h750v2c141 15 250 134 250 279z m-438 644l113-112h-113v112z m-499-863v876h437v-188h188v-189c-46-5-89-21-125-46v110l-313 63v-256c-10 4-20 6-31 6c-52 0-94-43-94-94c0-52 42-94 94-94c52 0 94 42 94 94v250l187-31v-105c-20-25-36-54-47-85c-44-7-78-45-78-92c0-46 34-84 78-92c18-50 49-94 89-127h-479z m656 4c-119 0-215 97-215 215c0 119 96 215 215 215c119 0 215-96 215-215c0-118-96-215-215-215z" horiz-adv-x="1000" />
<glyph glyph-name="document_music_down" unicode="&#xe8b7;" d="m719 38l125 125l-250 0z m281 93c0 145-109 264-250 280v265l-175 174h-575v-1000h750v2c141 15 250 134 250 279z m-438 644l113-112h-113v112z m-499-863v876h437v-188h188v-189c-46-5-89-21-125-46v110l-313 63v-256c-10 4-20 6-31 6c-52 0-94-43-94-94c0-52 42-94 94-94c52 0 94 42 94 94v250l187-31v-105c-20-25-36-54-47-85c-44-7-78-45-78-92c0-46 34-84 78-92c18-50 49-94 89-127h-479z m656 4c-119 0-215 97-215 215c0 119 96 215 215 215c119 0 215-96 215-215c0-118-96-215-215-215z" horiz-adv-x="1000" />
<glyph glyph-name="document_music_edit" unicode="&#xe8b8;" d="m875 194l-156-156l-94 93l156 157z m-281-94l94-94l-94 0z m406 31c0 145-109 264-250 280l0 265l-175 174l-575 0l0-1000l750 0l0 2c141 15 250 134 250 279z m-438 644l113-112l-113 0l0 112z m-499-863l0 876l437 0l0-188l188 0l0-189c-46-5-89-21-125-46l0 110l-313 63l0-256c-10 4-20 6-31 6c-52 0-94-43-94-94c0-52 42-94 94-94c52 0 94 42 94 94l0 250l187-31l0-105c-20-25-36-54-47-85c-44-7-78-45-78-92c0-46 34-84 78-92c18-50 49-94 89-127l-479 0z m656 4c-119 0-215 97-215 215c0 119 96 215 215 215c119 0 215-96 215-215c0-118-96-215-215-215z" horiz-adv-x="1000" />
<glyph glyph-name="document_music_information" unicode="&#xe8b9;" d="m688-25h62v188h-62v-188z m0 313v-63h62v63h-62z m312-157c0 145-109 264-250 280v265l-175 174h-575v-1000h750v2c141 15 250 134 250 279z m-438 644l113-112h-113v112z m-499-863v876h437v-188h188v-189c-46-5-89-21-125-46v110l-313 63v-256c-10 4-20 6-31 6c-52 0-94-43-94-94c0-52 42-94 94-94c52 0 94 42 94 94v250l187-31v-105c-20-25-36-54-47-85c-44-7-78-45-78-92c0-46 34-84 78-92c18-50 49-94 89-127h-479z m656 4c-119 0-215 97-215 215c0 119 96 215 215 215c119 0 215-96 215-215c0-118-96-215-215-215z" horiz-adv-x="1000" />
<glyph glyph-name="document_music_remove" unicode="&#xe8ba;" d="m563 163l312 0l0-63l-312 0z m437-32c0 145-109 264-250 280v265l-175 174h-575v-1000h750v2c141 15 250 134 250 279z m-438 644l113-112h-113v112z m-499-863v876h437v-188h188v-189c-46-5-89-21-125-46v110l-313 63v-256c-10 4-20 6-31 6c-52 0-94-43-94-94c0-52 42-94 94-94c52 0 94 42 94 94v250l187-31v-105c-20-25-36-54-47-85c-44-7-78-45-78-92c0-46 34-84 78-92c18-50 49-94 89-127h-479z m656 4c-119 0-215 97-215 215c0 119 96 215 215 215c119 0 215-96 215-215c0-118-96-215-215-215z" horiz-adv-x="1000" />
<glyph glyph-name="document_music_run" unicode="&#xe8bb;" d="m813 131l-125 125l0-250z m187 0c0 145-109 264-250 280v265l-175 174h-575v-1000h750v2c141 15 250 134 250 279z m-438 644l113-112h-113v112z m-499-863v876h437v-188h188v-189c-46-5-89-21-125-46v110l-313 63v-256c-10 4-20 6-31 6c-52 0-94-43-94-94c0-52 42-94 94-94c52 0 94 42 94 94v250l187-31v-105c-20-25-36-54-47-85c-44-7-78-45-78-92c0-46 34-84 78-92c18-50 49-94 89-127h-479z m656 4c-119 0-215 97-215 215c0 119 96 215 215 215c119 0 215-96 215-215c0-118-96-215-215-215z" horiz-adv-x="1000" />
<glyph glyph-name="document_music_security" unicode="&#xe8bc;" d="m817 163c0 4 0 8 0 12c0 22-2 47-17 71c-14 24-45 42-81 42c-37 0-67-18-82-42c-14-24-17-49-17-71c0-4 0-8 0-12h-26v-157h250v157h-27z m-135 12c0 15 3 30 8 38c6 7 9 11 29 12c20-1 23-5 28-12c5-8 8-23 8-38c0-4 0-8-1-12h-71c0 4-1 8-1 12z m318-44c0 145-109 264-250 280v265l-175 174h-575v-1000h750v2c141 15 250 134 250 279z m-438 644l113-112h-113v112z m-499-863v876h437v-188h188v-189c-46-5-89-21-125-46v110l-313 63v-256c-10 4-20 6-31 6c-52 0-94-43-94-94c0-52 42-94 94-94c52 0 94 42 94 94v250l187-31v-105c-20-25-36-54-47-85c-44-7-78-45-78-92c0-46 34-84 78-92c18-50 49-94 89-127h-479z m656 4c-119 0-215 97-215 215c0 119 96 215 215 215c119 0 215-96 215-215c0-118-96-215-215-215z" horiz-adv-x="1000" />
<glyph glyph-name="document_music_settings" unicode="&#xe8bd;" d="m875 100v63h-52c-2 6-4 12-8 19l38 37l-45 44l-36-37c-7 4-14 7-22 10v52h-62v-52c-8-3-14-5-21-9l-35 36l-45-44l36-36c-4-7-6-13-9-20h-51v-63h51c3-8 6-15 10-22l-37-36l44-44l38 37c6-3 12-6 18-8v-52h63v52c7 2 14 5 20 9l38-38l44 44l-37 38c3 6 6 13 8 20h52z m-156-16c-26 1-47 21-47 47c0 26 21 47 47 47c26 0 47-21 47-47c0-26-21-46-47-47z m281 47c0 145-109 264-250 280v265l-175 174h-575v-1000h750v2c141 15 250 134 250 279z m-438 644l113-112h-113v112z m-499-863v876h437v-188h188v-189c-46-5-89-21-125-46v110l-313 63v-256c-10 4-20 6-31 6c-52 0-94-43-94-94c0-52 42-94 94-94c52 0 94 42 94 94v250l187-31v-105c-20-25-36-54-47-85c-44-7-78-45-78-92c0-46 34-84 78-92c18-50 49-94 89-127h-479z m656 4c-119 0-215 97-215 215c0 119 96 215 215 215c119 0 215-96 215-215c0-118-96-215-215-215z" horiz-adv-x="1000" />
<glyph glyph-name="document_music_up" unicode="&#xe8be;" d="m719 225l-125-125l250 0z m281-94c0 145-109 264-250 280v265l-175 174h-575v-1000h750v2c141 15 250 134 250 279z m-438 644l113-112h-113v112z m-499-863v876h437v-188h188v-189c-46-5-89-21-125-46v110l-313 63v-256c-10 4-20 6-31 6c-52 0-94-43-94-94c0-52 42-94 94-94c52 0 94 42 94 94v250l187-31v-105c-20-25-36-54-47-85c-44-7-78-45-78-92c0-46 34-84 78-92c18-50 49-94 89-127h-479z m656 4c-119 0-215 97-215 215c0 119 96 215 215 215c119 0 215-96 215-215c0-118-96-215-215-215z" horiz-adv-x="1000" />
<glyph glyph-name="document_sans" unicode="&#xe8bf;" d="m575 850h-575v-1000h750v826l-175 174z m-13-75l113-112h-113v112z m-499-863v876h437v-188h188v-688h-625z" horiz-adv-x="1000" />
<glyph glyph-name="document_sans_accept" unicode="&#xe8c0;" d="m688 131l125 125l62-62l-187-188l-125 125l62 63z m312 0c0 145-109 264-250 280v265l-175 174h-575v-1000h750v2c141 15 250 134 250 279z m-438 644l113-112h-113v112z m-499-863v876h437v-188h188v-189c-141-16-250-135-250-280c0-88 40-167 104-219h-479z m656 4c-119 0-215 97-215 215c0 119 96 215 215 215c119 0 215-96 215-215c0-118-96-215-215-215z" horiz-adv-x="1000" />
<glyph glyph-name="document_sans_add" unicode="&#xe8c1;" d="m688 163l-125 0l0-63l125 0l0-125l62 0l0 125l125 0l0 63l-125 0l0 125l-62 0z m312-32c0 145-109 264-250 280v265l-175 174h-575v-1000h750v2c141 15 250 134 250 279z m-438 644l113-112h-113v112z m-499-863v876h437v-188h188v-189c-141-16-250-135-250-280c0-88 40-167 104-219h-479z m656 4c-119 0-215 97-215 215c0 119 96 215 215 215c119 0 215-96 215-215c0-118-96-215-215-215z" horiz-adv-x="1000" />
<glyph glyph-name="document_sans_cancel" unicode="&#xe8c2;" d="m719 69l62-63l63 63l-63 62l63 63l-63 62l-62-62l-63 62l-62-62l62-63l-62-62l62-63z m281 62c0 145-109 264-250 280v265l-175 174h-575v-1000h750v2c141 15 250 134 250 279z m-438 644l113-112h-113v112z m-499-863v876h437v-188h188v-189c-141-16-250-135-250-280c0-88 40-167 104-219h-479z m656 4c-119 0-215 97-215 215c0 119 96 215 215 215c119 0 215-96 215-215c0-118-96-215-215-215z" horiz-adv-x="1000" />
<glyph glyph-name="document_sans_down" unicode="&#xe8c3;" d="m719 38l125 125l-250 0z m281 93c0 145-109 264-250 280v265l-175 174h-575v-1000h750v2c141 15 250 134 250 279z m-438 644l113-112h-113v112z m-499-863v876h437v-188h188v-189c-141-16-250-135-250-280c0-88 40-167 104-219h-479z m656 4c-119 0-215 97-215 215c0 119 96 215 215 215c119 0 215-96 215-215c0-118-96-215-215-215z" horiz-adv-x="1000" />
</font>
</defs>
</svg>
